<?xml version="1.0" standalone="no"?>
<!DOCTYPE svg PUBLIC "-//W3C//DTD SVG 1.1//EN" "../../../../../../www.w3.org/Graphics/SVG/1.1/DTD/svg11.dtd" >
<svg xmlns="http://www.w3.org/2000/svg">
<metadata>
This is a custom SVG font generated by IcoMoon.
<iconset grid="16"></iconset>
</metadata>
<defs>
<font id="icomoon" horiz-adv-x="512" >
<font-face units-per-em="512" ascent="480" descent="-32" />
<missing-glyph horiz-adv-x="512" />
<glyph unicode="&#xe001;" d="M 136.059,254.629c-5.785,0.00-10.503,4.718-10.503,10.503L 125.556,286.14 c0.00,5.785, 4.718,10.503, 10.503,10.503l 147.053,0.00 
		c 5.785,0.00, 10.503-4.718, 10.503-10.503l0.00-21.008 c0.00-5.785-4.718-10.503-10.503-10.503L 136.059,254.629 zM 508.284,18.152l-46.487-46.467c-4.246-4.247-11.222-4.247-15.468,0.00L 318.232,99.802
		c-32.29-20.863-70.633-33.132-111.828-33.132C 92.321,66.67-0.49,159.48-0.49,273.605C-0.49,387.689, 92.321,480.50, 206.405,480.50
		c 114.125,0.00, 206.936-92.811, 206.936-206.895c0.00-41.215-12.269-79.537-33.111-111.827l 128.096-128.138
		C 512.552,29.395, 512.552,22.419, 508.284,18.152z M 347.569,273.564c0.00,77.854-63.351,141.164-141.206,141.164
		c-77.854,0.00-141.164-63.31-141.164-141.164s 63.31-141.205, 141.164-141.205C 284.219,132.359, 347.569,195.71, 347.569,273.564z"  />
<glyph unicode="&#xe002;" d="M 508.284,18.152l-46.487-46.467c-4.246-4.247-11.222-4.247-15.468,0.00L 318.232,99.802
		c-32.291-20.863-70.634-33.132-111.828-33.132C 92.32,66.67-0.49,159.48-0.49,273.605C-0.49,387.689, 92.32,480.50, 206.404,480.50
		c 114.126,0.00, 206.937-92.811, 206.937-206.895c0.00-41.214-12.269-79.537-33.111-111.828l 128.096-128.137
		C 512.552,29.395, 512.552,22.419, 508.284,18.152z M 347.569,273.564c0.00,77.855-63.351,141.165-141.206,141.165
		c-77.854,0.00-141.164-63.31-141.164-141.165c0.00-77.854, 63.309-141.205, 141.164-141.205
		C 284.219,132.359, 347.569,195.71, 347.569,273.564z M 277.858,296.644L 225.34,296.644 l0.00,52.519 c0.00,5.785-4.718,10.504-10.503,10.504l-21.008,0.00 
		c-5.785,0.00-10.504-4.719-10.504-10.504l0.00-52.519 l-52.519,0.00 c-5.785,0.00-10.503-4.718-10.503-10.503l0.00-21.008 
		c0.00-5.785, 4.718-10.503, 10.503-10.503l 52.519,0.00 l0.00-52.519 c0.00-5.785, 4.719-10.504, 10.504-10.504l 21.008,0.00 c 5.785,0.00, 10.503,4.719, 10.503,10.504
		l0.00,52.519 l 52.519,0.00 c 5.786,0.00, 10.504,4.718, 10.504,10.503L 288.363,286.14 C 288.362,291.925, 283.645,296.644, 277.858,296.644z"  />
<glyph unicode="&#xe007;" d="M 485.272,47.272c-17.227,9.807-113.454,40.012-160.00,63.398c0.00,0.00,0.00,39.033,0.00,53.557
		c 46.546,3.341, 86.455,30.409, 101.978,47.261c 15.522,16.853-14.75,33.00-37.704,59.762c-22.909,26.761-27.318,49.545-27.318,103.103
		c0.00,50.034-41.273,105.238-106.75,106.079C 190.00,479.614, 148.727,424.409, 148.727,374.353c0.00-53.557-4.409-76.307-27.318-103.103
		c-22.955-26.761-53.228-42.932-37.705-59.762c 15.522-16.875, 55.432-43.942, 101.977-47.261c0.00-14.523,0.00-53.557,0.00-53.557
		c-46.545-23.387-142.772-53.592-160.00-63.398C 9.818,38.296-0.50,27.125-0.50,8.738l0.00-28.534 c0.00-6.397, 5.227-11.636, 11.636-11.636
		l 488.727,0.00 c 6.409,0.00, 11.637,5.238, 11.637,11.636l0.00,28.534 C 511.454,27.125, 501.137,38.296, 485.272,47.272z"  />
<glyph unicode="&#xe008;" d="M 377.429,165.007l-32.273-32.233c-22.996,23.135-54.807,37.497-89.923,37.497c-34.816,0.00-66.406-14.135-89.354-36.928
		l-32.273,32.232c 31.209,31.063, 74.197,50.331, 121.628,50.331C 302.947,215.906, 346.162,196.427, 377.429,165.007z M 255.216,124.229
		c-22.144,0.00-42.224-8.952-56.829-23.443l 57.397-57.398l 56.83,56.83C 297.951,115.033, 277.66,124.229, 255.216,124.229z M-0.50,299.655
		l 33.557-33.564c 56.96,56.829, 135.534,92.019, 222.159,92.019c 86.926,0.00, 165.712-35.417, 222.744-92.571l 33.54,33.564
		C 445.898,364.868, 355.22,405.613, 255.216,405.613C 155.496,405.613, 65.062,365.111-0.50,299.655z M 255.216,312.148
		c-73.944,0.00-141.009-30.071-189.65-78.583l 35.498-35.498c 39.543,39.397, 94.05,63.799, 154.152,63.799
		c 60.388,0.00, 115.121-24.597, 154.722-64.367l 35.481,35.547C 396.753,281.882, 329.462,312.148, 255.216,312.148z"  />
<glyph unicode="&#xe009;" d="M 304.885,290.414c0.00,27.269-22.115,49.384-49.385,49.384s-49.385-22.115-49.385-49.384c0.00-21.799, 14.23-40.097, 33.827-46.635
		l-23.827-267.991l 78.77,0.00 L 271.058,243.76C 290.673,250.298, 304.885,268.597, 304.885,290.414zM 104.481,445.414L 76.635,473.212C 29.115,426.722-0.50,361.99-0.50,290.414c0.00-71.587, 29.615-136.309, 77.135-182.809l 27.846,27.808
		c-40.404,39.385-65.596,94.27-65.596,155.001C 38.885,351.145, 64.077,406.029, 104.481,445.414zM 148.346,401.558c-29.211-28.163-47.577-67.471-47.577-111.163c0.00-43.663, 18.366-83.00, 47.539-111.164l 27.846,27.847
		c-22.077,20.99-36.00,50.49-36.00,83.298s 13.961,62.27, 36.00,83.298L 148.346,401.558zM 434.365,473.212L 406.52,445.414c 40.403-39.385, 65.596-94.27, 65.596-155.00c0.00-60.731-25.192-115.616-65.596-155.001
		l 27.846-27.808c 47.52,46.50, 77.135,111.222, 77.135,182.809C 511.50,361.99, 481.885,426.702, 434.365,473.212zM 362.654,401.558l-27.809-27.846c 22.039-21.029, 36.00-50.49, 36.00-83.298s-13.923-62.308-36.00-83.299l 27.847-27.846
		c 29.173,28.163, 47.538,67.51, 47.538,111.163C 410.23,334.087, 391.885,373.395, 362.654,401.558z"  />
<glyph unicode="&#xe00a;" d="M 318.145,266.033c0.00-34.582-28.073-62.688-62.688-62.688c-32.613,0.00-59.147,25.071-62.074,56.92
			c 7.295-4.175, 15.602-6.757, 24.63-6.757c 27.588,0.00, 49.937,22.381, 49.937,49.969c0.00,9.038-2.528,17.345-6.726,24.64
			C 293.095,325.17, 318.145,298.614, 318.145,266.033zM 308.697,102.611c 80.603,23.199, 139.836,97.464, 139.836,185.416c0.00,102.714-86.198,186.706-187.524,192.473l0.00-130.927 
			c 41.49-5.466, 79.193-40.629, 79.193-83.583c0.00-42.953-37.703-78.117-79.193-83.583l0.00-81.689 L 249.99,100.718 l0.00,81.689 
			c-41.49,5.466-79.203,40.63-79.203,83.583c0.00,42.954, 37.713,78.117, 79.203,83.583L 249.99,480.50 C 148.664,474.689, 62.467,390.741, 62.467,288.027
			c0.00-87.952, 59.233-162.216, 139.836-185.416L 83.771-15.92c-8.575-8.564-5.66-15.58, 6.456-15.58L 134.30-31.50 
			c 12.116,0.00, 29.041,7.016, 37.617,15.58l 34.948,34.948c 8.575,8.565, 25.501,15.581, 37.616,15.581l 22.036,0.00 
			c 12.116,0.00, 29.042-7.016, 37.617-15.581l 34.948-34.948c 8.576-8.564, 25.501-15.58, 37.617-15.58l 44.072,0.00 
			c 12.115,0.00, 15.031,7.016, 6.456,15.58L 308.697,102.611z"  />
<glyph unicode="&#xe00b;" d="M 507.832,45.011L 279.508,431.514c-4.936,8.611-14.087,13.907-23.995,13.907s-19.059-5.296-23.994-13.907L 3.195,45.011
		c-4.954-8.557-4.918-19.094, 0.054-27.633c 4.954-8.538, 14.087-13.799, 23.958-13.799l 456.612,0.00 c 9.872,0.00, 19.005,5.261, 23.959,13.799
		C 512.714,25.917, 512.75,36.454, 507.832,45.011z M 74.943,58.918l 180.57,309.836l 180.57-309.836L 74.943,58.918 z M 283.183,125.785l0.00-41.504 
		c0.00-3.819-3.099-6.918-6.917-6.918l-41.504,0.00 c-3.819,0.00-6.917,3.099-6.917,6.918l0.00,41.504 c0.00,3.818, 3.098,6.917, 6.917,6.917l 41.504,0.00 
		C 280.084,132.702, 283.183,129.604, 283.183,125.785z M 237.049,280.271l 36.928,0.00 c 5.062,0.00, 9.205-4.143, 9.205-9.205l0.00-34.604 
		c0.00-3.818-0.612-9.979-1.352-13.69l-12.447-63.696c-0.738-3.711-4.467-7.926-8.286-7.926l-10.844,0.00 c-3.819,0.00-7.548,4.215-8.305,7.926
		l-12.70,63.12c-0.756,3.711-1.369,10.448-1.369,14.267l0.00,34.604 C 227.844,276.128, 231.987,280.271, 237.049,280.271z"  />
<glyph unicode="&#xe00c;" d="M 481.10,408.82L 347.66,408.82 c0.00,11.32-9.16,20.48-20.48,20.48L 265.74,429.30 l-9.601,0.00 c0.00,0.00-12.159,0.00-21.12-10.24
		c-1.48-1.84-51.20-51.20-51.20-51.20l 0.12,0.00 c0.00-0.22-0.12-0.44-0.12-0.64l0.00-101.76 c0.00-11.26, 9.22-20.48, 20.48-20.48l 61.44,0.00 
		c 11.26,0.00, 20.479,9.22, 20.479,20.48L 286.218,367.22 c0.00,0.24, 40.96,41.60, 40.96,41.60l 10.24,0.00 L 316.94,388.34l 153.60,0.00 
		c 11.26,0.00, 20.479-9.22, 20.479-20.48L 491.019,70.90 l 20.48,20.479L 511.499,378.10 C 511.50,397.62, 496.46,408.82, 481.10,408.82z M 235.02,274.78
		c-11.80,0.00-21.40,9.56-21.40,21.40c0.00,11.84, 9.60,21.40, 21.40,21.40c 11.80,0.00, 21.40-9.56, 21.40-21.40C 256.42,284.34, 246.82,274.78, 235.02,274.78zM 214.54,408.82L 71.18,408.82L 50.70,388.34L 194.06,388.34 	zM 450.06,367.86l-153.60,0.00 l-0.06,0.00 c0.00-0.22, 0.06-0.44, 0.06-0.64l0.00-101.76 c0.00-22.60-8.14-30.72-30.72-30.72L 204.30,234.74 
		c-22.58,0.00-30.72,8.12-30.72,30.72L 173.58,367.22 c0.00,0.24, 0.06,0.44, 0.06,0.64l-0.06,0.00 c0.00,0.00-112.64,0.00-133.12,0.00S-0.50,347.38-0.50,326.90
		c0.00-40.96,0.00-286.72,0.00-286.72c0.00-11.26, 9.22-20.479, 20.48-20.479c0.00,0.00, 389.12,0.00, 409.60,0.00c 20.479,0.00, 40.96,20.479, 40.96,40.96
		c0.00,20.479,0.00,286.72,0.00,286.72C 470.54,358.64, 461.32,367.86, 450.06,367.86z"  />
<glyph unicode="&#xe00d;" d="M 507.98,224.677c0.00-96.902-33.927-185.997-90.424-256.177l-32.868,26.931c 50.476,62.85, 80.77,142.56, 80.77,229.246
		c0.00,86.936-30.48,166.854-81.195,229.786L 417.868,480.50C 474.178,410.341, 507.98,321.392, 507.98,224.677z M 350.647,428.488
		l-33.637-25.995c 39.606-48.545, 63.40-110.439, 63.40-177.816c0.00-66.256-23.047-127.195-61.49-175.366l 32.868-26.95
		c 44.465,55.479, 71.146,125.846, 71.146,202.316C 422.935,301.833, 395.808,372.76, 350.647,428.488z M 283.396,376.497l-33.657-26.037
		c 28.445-34.135, 45.627-77.986, 45.627-125.783c0.00-45.824-15.884-87.953-42.263-121.424l 32.972-27.033
		c 32.38,40.862, 51.835,92.417, 51.835,148.415C 337.889,282.273, 317.416,335.179, 283.396,376.497z M 215.635,388.561
		c0.00,5.855-3.571,7.434-7.932,3.551L 104.50,295.105c-4.36-3.924-12.738-7.101-18.563-7.101L 13.65,288.004 c-5.845,0.00-10.63-4.797-10.63-10.631
		l0.00-84.61 c0.00-5.855, 4.786-10.631, 10.63-10.631l 73.647,0.00 c 5.824,0.00, 14.098-3.28, 18.354-7.309l 102.269-97.026
		c 4.246-3.986, 7.714-2.513, 7.714,3.322L 215.634,388.561 L 215.635,388.561z"  />
<glyph unicode="&#xe00e;" d="M 428.172,440.985l-51.488-39.807c 43.489-52.188, 69.773-119.231, 69.773-192.305c0.00-70.06-24.284-134.468-64.631-185.64
		l 50.409-41.33C 481.756,44.375, 511.50,123.195, 511.50,208.81C 511.469,296.931, 480.169,377.814, 428.172,440.985z M 324.56,459.428
		c0.00,8.952-5.46,11.364-12.126,5.428L 154.665,316.548c-6.666-6.00-19.49-10.856-28.379-10.856L 15.753,305.692 
		c-8.951,0.00-16.253-7.333-16.253-16.253l0.00-129.357 c0.00-8.952, 7.302-16.253, 16.253-16.253L 128.35,143.829 c 8.92,0.00, 21.554-5.016, 28.062-11.174
		l 156.34-148.34c 6.508-6.095, 11.809-3.841, 11.809,5.079L 324.561,459.428 L 324.56,459.428z"  />
<glyph unicode="&#xe010;" d="M 511.50,395.167L 511.50,480.50 l-85.333,0.00 l0.00-21.333 L 84.833,459.167 L 84.833,480.50 L-0.50,480.50 l0.00-85.333 l 21.333,0.00 l0.00-341.333 L-0.50,53.834 L-0.50-31.50 l 85.333,0.00 l0.00,21.333 l 341.333,0.00 L 426.166-31.50 
			L 511.50-31.50 l0.00,85.333 l-21.333,0.00 L 490.167,395.167 L 511.50,395.167 z M 447.50,459.167l 42.667,0.00 L 490.167,416.50 L 447.50,416.50 L 447.50,459.167 z M 20.833,459.167L 63.50,459.167 L 63.50,416.50 L 20.833,416.50 L 20.833,459.167 z
			 M 63.50-10.167L 20.833-10.167 L 20.833,32.50 L 63.50,32.50 L 63.50-10.167 z M 490.167-10.167L 447.50-10.167 L 447.50,32.50 l 42.667,0.00 L 490.167-10.167 z M 447.50,53.833l-21.333,0.00 L 426.167,32.50 L 84.833,32.50 
			l0.00,21.333 L 63.50,53.833 L 63.50,395.167 l 21.333,0.00 L 84.833,416.50 l 341.333,0.00 l0.00-21.333 L 447.50,395.167 L 447.50,53.833 z"  />
<glyph unicode="&#xe011;" d="M 452.038,313.115L 294.885,426.23L 294.885,470.654 l-78.77,0.00 l0.00-44.481 L 59.539,313.115L-0.50,313.115 l0.00-78.769 l 29.327,0.00 l 57.98-177.231l-8.539,0.00 l0.00-78.77 l 78.77,0.00 
			l0.00,19.692 l 196.922,0.00 l0.00-19.692 l 78.77,0.00 l0.00,78.77 l-8.615,0.00 l 57.865,177.231l 29.52,0.00 l0.00,78.769 L 452.038,313.115 z M 58.577,254.039L 19.192,254.039 l0.00,39.384 l 39.385,0.00 
			L 58.577,254.039 z M 235.808,450.962l 39.385,0.00 l0.00-39.385 l-39.385,0.00 L 235.808,450.962 z M 137.346-1.962L 97.961-1.962 l0.00,39.385 l 39.385,0.00 L 137.346-1.962 z M 413.038-1.962
			l-39.384,0.00 l0.00,39.385 l 39.384,0.00 L 413.038-1.962 z M 382.692,57.115l-28.731,0.00 l0.00-19.692 L 157.039,37.423 l0.00,19.692 l-28.731,0.00 L 70.269,234.347l 8.00,0.00 l0.00,43.711 
			L 235.885,391.885l 39.326,0.00 L 432.73,278.48l0.00-44.134 l 7.865,0.00 L 382.692,57.115z M 491.808,254.039l-39.385,0.00 l0.00,39.384 l 39.385,0.00 L 491.808,254.039 z"  />
<glyph unicode="&#xe012;" d="M 426.167,480.50l0.00-55.167 l-371.50-371.50L-0.50,53.833 L-0.50-31.50 l 85.333,0.00 l0.00,55.167 l 371.50,371.50L 511.50,395.167 L 511.50,480.50 L 426.167,480.50 z M 63.50-10.167L 20.833-10.167 L 20.833,32.50 
		L 63.50,32.50 L 63.50-10.167 z M 490.167,416.50L 447.50,416.50 L 447.50,459.167 l 42.667,0.00 L 490.167,416.50 z"  />
<glyph unicode="&#xe013;" d="M 426.167,480.50l0.00-28.938 c-203.00-35.458-362.208-194.729-397.708-397.729L-0.50,53.833 L-0.50-31.50 l 85.333,0.00 l0.00,85.333 L 71.917,53.833 
		c 34.458,179.333, 174.917,319.813, 354.25,354.271l0.00-12.938 L 511.50,395.166 L 511.50,480.50 L 426.167,480.50 z M 63.50-10.167L 20.833-10.167 L 20.833,32.50 L 63.50,32.50 L 63.50-10.167 z
		 M 490.167,416.50L 447.50,416.50 L 447.50,459.167 l 42.667,0.00 L 490.167,416.50 z"  />
<glyph unicode="&#xe014;" d="M 486.083,267.167C 468.542,362.375, 393.375,437.50, 298.166,455.083L 298.166,480.50 l-85.333,0.00 l0.00-25.417 
			C 117.625,437.542, 42.50,362.375, 24.917,267.167L-0.50,267.167 l0.00-85.333 l 25.417,0.00 C 42.50,86.625, 117.625,11.50, 212.833-6.083L 212.833-31.50 l 85.333,0.00 
			l0.00,25.417 c 95.209,17.541, 170.334,92.708, 187.917,187.917L 511.50,181.834 l0.00,85.333 L 486.083,267.167 L 486.083,267.167z M 234.167,459.167l 42.667,0.00 L 276.834,416.50 
			l-42.667,0.00 L 234.167,459.167 z M 63.50,203.166L 20.833,203.166 l0.00,42.667 L 63.50,245.833 L 63.50,203.166 z M 276.834-10.167l-42.667,0.00 L 234.167,32.50 l 42.667,0.00 L 276.834-10.167 z M 442.542,181.834
			c-16.334-71.626-72.709-128.042-144.376-144.396l0.00,16.396 l-85.333,0.00 l0.00-16.396 c-71.625,16.354-128.042,72.729-144.375,144.396l 16.375,0.00 
			l0.00,85.333 L 68.458,267.167 c 16.333,71.625, 72.75,128.042, 144.375,144.417l0.00-16.417 l 85.333,0.00 L 298.166,411.562 c 71.626-16.354, 128.042-72.729, 144.376-144.396
			l-16.375,0.00 l0.00-85.333 L 442.542,181.833 z M 490.167,203.166L 447.50,203.166 l0.00,42.667 l 42.667,0.00 L 490.167,203.166 z"  />
<glyph unicode="&#xe015;" d="M 511.50,395.167L 511.50,480.50 l-85.333,0.00 l0.00-21.333 L 298.166,459.167 L 298.166,480.50 l-85.333,0.00 l0.00-21.333 l-128.00,0.00 L 84.833,480.50 L-0.50,480.50 l0.00-85.333 l 21.333,0.00 l0.00-128.00 L-0.50,267.167 l0.00-85.333 l 21.333,0.00 
		l0.00-128.001 L-0.50,53.833 L-0.50-31.50 l 85.333,0.00 l0.00,21.333 l 128.00,0.00 L 212.833-31.50 l 85.333,0.00 l0.00,21.333 l 128.001,0.00 L 426.167-31.50 L 511.50-31.50 l0.00,85.333 l-21.333,0.00 L 490.167,181.834 L 511.50,181.834 l0.00,85.333 l-21.333,0.00 
		l0.00,128.00 L 511.50,395.167 z M 234.167,459.167l 42.667,0.00 L 276.834,416.50 l-42.667,0.00 L 234.167,459.167 z M 20.833,459.167L 63.50,459.167 L 63.50,416.50 L 20.833,416.50 L 20.833,459.167 z M 20.833,245.833L 63.50,245.833 l0.00-42.667 
		L 20.833,203.166 L 20.833,245.833 z M 63.50-10.167L 20.833-10.167 L 20.833,32.50 L 63.50,32.50 L 63.50-10.167 z M 276.834-10.167l-42.667,0.00 L 234.167,32.50 l 42.667,0.00 L 276.834-10.167 z M 426.167,32.50
		L 298.166,32.50 l0.00,21.333 l-85.333,0.00 L 212.833,32.50 l-128.00,0.00 l0.00,21.333 L 63.50,53.833 L 63.50,181.834 l 21.333,0.00 l0.00,85.333 L 63.50,267.167 l0.00,128.00 l 21.333,0.00 L 84.833,416.50 l 128.00,0.00 l0.00-21.333 l 85.333,0.00 L 298.166,416.50 l 128.001,0.00 
		l0.00-21.333 L 447.50,395.167 l0.00-128.00 l-21.333,0.00 l0.00-85.333 L 447.50,181.834 l0.00-128.001 l-21.333,0.00 L 426.167,32.50 z M 490.167-10.167L 447.50-10.167 L 447.50,32.50 l 42.667,0.00 L 490.167-10.167 z M 490.167,203.166
		L 447.50,203.166 l0.00,42.667 l 42.667,0.00 L 490.167,203.166 z M 447.50,416.50L 447.50,459.167 l 42.667,0.00 L 490.167,416.50 L 447.50,416.50 z"  />
<glyph unicode="&#xe016;" d="M 20.833,480.50l0.00-394.854 L 20.833-31.50 l 64.00,0.00 l0.00,21.333 c0.00,11.792, 9.563,21.334, 21.333,21.334l 106.667,0.00 c 11.771,0.00, 21.334-9.542, 21.334-21.334
		L 234.167-31.50 l 42.666,0.00 l0.00,21.333 c0.00,11.792, 9.563,21.334, 21.334,21.334l 106.666,0.00 c 11.771,0.00, 21.334-9.542, 21.334-21.334L 426.167-31.50 l 64.00,0.00 l0.00,512.00 L 20.833,480.50 z
		 M 404.833,117.833L 106.166,117.833 c0.00,21.334,0.00,20.417,0.00,24.979c0.00,15.625, 7.584,22.041, 19.459,28.813
		c 9.583,5.459, 44.541,29.938, 87.208,42.938l0.00,41.792 c-21.333,6.708-21.333,26.708-21.333,42.667c0.00,37.063,0.00,42.667,0.00,42.667
		c0.00,36.729, 19.479,64.00, 64.00,64.00c 44.521,0.00, 64.00-27.271, 64.00-64.00l0.00-42.667 c0.00-15.792,0.00-35.958-21.333-42.667l0.00-41.792 
		c 42.666-12.959, 77.625-37.479, 87.208-42.938c 11.875-6.729, 19.458-13.146, 19.458-28.813
		C 404.833,138.25, 404.833,139.167, 404.833,117.833z"  />
<glyph unicode="&#xe017;" d="M 510.744,76.708c0.00,83.792-83.822,105.126-83.822,126.459s 21.334,42.667, 21.334,42.667l-128.00,0.00 
		c0.00,0.00, 21.332-21.333, 21.332-42.667s-85.333-39.583-85.333-126.459c0.00-86.896, 75.479-86.875, 75.479-86.875l-32.813,0.00 l0.00-11.563 l0.00-9.771 
		l 170.666,0.00 l0.00,9.771 l0.00,11.563 l-31.406,0.00 C 438.182-10.167, 510.744-7.083, 510.744,76.708z M 343.703,154.375
		c-23.49-16.875-50.115-36.00-50.115-77.667c0.00-23.291, 7.209-36.50, 15.938-44.208l-19.582,0.00 c-7.104,9.667-12.334,23.542-12.334,44.208
		c0.00,47.146, 30.25,68.876, 54.553,86.334c 8.406,6.042, 16.469,11.917, 22.27,18.792l 18.387,0.00 
		C 365.975,170.50, 354.432,162.084, 343.703,154.375zM 170.922,11.167c0.00,42.666, 83.823,149.333, 83.823,256.00c0.00,106.667-62.49,106.667-62.49,149.333c0.00,36.208, 21.333,64.00, 21.333,64.00
		L 42.922,480.50 c0.00,0.00, 21.333-27.792, 21.333-64.00c0.00-42.667-64.00-42.667-64.00-149.333c0.00-106.667, 85.333-213.334, 85.333-256.00
		c0.00-10.667-2.667-17.334-6.656-21.334L 42.922-10.167 L 42.922-31.50 l 170.667,0.00 l0.00,21.333 l-36.011,0.00 C 173.589-6.167, 170.922,0.50, 170.922,11.167z
		 M 76.245,95.25C 51.88,144.917, 21.589,206.771, 21.589,267.167c0.00,56.833, 19.542,76.583, 36.781,94.75
		c 3.792,4.00, 7.698,11.917, 11.364,11.917L 88.38,373.834 c-5.271,0.00-11.344-13.375-16.917-19.25c-16.636-17.50-33.833-35.208-33.833-87.792
		c0.00-57.958, 29.698-118.333, 53.594-167.042c 8.531-17.417, 15.74-32.25, 21.24-45.875L 95.526,53.875 
		C 90.412,66.062, 83.88,79.667, 76.245,95.25z"  />
<glyph unicode="&#xe018;" d="M 489.239,86.305c-14.348,8.151-107.805,63.467-155.826,82.901l0.00,84.076 
		c 13.892,10.152, 22.261,25.783, 22.261,49.489l0.00,66.424 c0.00,55.098-33.392,100.174-100.174,100.174
		c-66.783,0.00-100.174-45.076-100.174-100.174c0.00,0.00,0.00-10.771,0.00-66.424c0.00-23.935, 8.369-39.608, 22.261-49.706l0.00-83.859 
		c-45.239-19.435-141.479-74.728-155.826-82.901C 3.935,76.174-0.50,66.532-0.50,43.119c0.00-9.575,0.00-52.358,0.00-52.358
		c0.00-6.119, 5.00-11.13, 11.13-11.13l 489.739,0.00 c 6.131,0.00, 11.131,5.011, 11.131,11.13c0.00,0.00,0.00,42.783,0.00,52.358
		C 511.50,66.532, 507.065,76.174, 489.239,86.305z"  />
<glyph unicode="&#xe019;" d="M 491.808,102.25c-12.673,7.212-95.365,56.145-137.846,73.336l0.00,74.375 
			c 12.288,8.981, 19.692,22.808, 19.692,43.779L 373.654,352.50 c0.00,48.74-29.539,88.615-88.616,88.615c-59.077,0.00-88.615-39.875-88.615-88.615
			c0.00,0.00,0.00-9.529,0.00-58.76c0.00-21.173, 7.404-35.038, 19.692-43.971l0.00-74.183 C 176.096,158.395, 90.942,109.48, 78.269,102.25
			c-15.769-8.962-19.692-17.49-19.692-38.202c0.00-8.471,0.00-46.317,0.00-46.317c0.00-5.413, 4.423-9.846, 9.846-9.846l 433.231,0.00 
			c 5.423,0.00, 9.846,4.433, 9.846,9.846c0.00,0.00,0.00,37.847,0.00,46.317C 511.50,84.76, 507.577,93.288, 491.808,102.25zM 9.346,224.50c-5.423,0.00-9.846,4.433-9.846,9.846l0.00,19.692 c0.00,5.414, 4.423,9.846, 9.846,9.846l 137.846,0.00 
		c 5.423,0.00, 9.846-4.433, 9.846-9.846l0.00-19.692 c0.00-5.414-4.423-9.846-9.846-9.846L 9.346,224.50 z"  />
<glyph unicode="&#xe01a;" d="M 493.214,110.982c-11.768,6.696-88.553,52.134-128.00,68.098l0.00,69.063 c 11.411,8.339, 18.286,21.179, 18.286,40.651
			l0.00,54.563 c0.00,45.26-27.429,82.286-82.286,82.286c-54.857,0.00-82.285-37.026-82.285-82.286c0.00,0.00,0.00-8.848,0.00-54.563
			c0.00-19.66, 6.875-32.535, 18.286-40.83l0.00-68.884 c-37.161-15.964-116.232-61.384-128.00-68.098c-14.643-8.321-18.286-16.241-18.286-35.474
			c0.00-7.866,0.00-43.009,0.00-43.009c0.00-5.026, 4.107-9.143, 9.143-9.143l 402.286,0.00 c 5.035,0.00, 9.143,4.116, 9.143,9.143c0.00,0.00,0.00,35.143,0.00,43.009
			C 511.50,94.741, 507.857,102.661, 493.214,110.982zM 173.214,261.071l-64.00,0.00 l0.00,64.00 c0.00,5.026-4.107,9.143-9.143,9.143L 81.786,334.214 c-5.036,0.00-9.143-4.116-9.143-9.143l0.00-64.00 l-64.00,0.00 
		c-5.036,0.00-9.143-4.116-9.143-9.143l0.00-18.286 c0.00-5.026, 4.107-9.143, 9.143-9.143l 64.00,0.00 l0.00-64.00 c0.00-5.027, 4.107-9.144, 9.143-9.144l 18.286,0.00 
		c 5.036,0.00, 9.143,4.116, 9.143,9.144l0.00,64.00 l 64.00,0.00 c 5.036,0.00, 9.143,4.116, 9.143,9.143l0.00,18.286 C 182.357,256.955, 178.25,261.071, 173.214,261.071
		z"  />
<glyph unicode="&#xe01b;" d="M 418.005,136.77c0.00,97.884-91.654,117.769-120.615,125.654c-9.385,2.615-8.577,4.961-28.27,7.192L 269.12,372.346 
		c 39.385-7.058, 48.077-29.692, 50.02-69.077l 84.788,0.00 c0.00,98.462-56.038,136.962-134.808,145.308L 269.12,480.50 l-39.384,0.00 l0.00-31.461 
		c-65.308-7.27-128.385-49.461-128.385-129.308c0.00-80.942, 59.616-105.654, 118.596-122.577c 3.25-0.962, 6.50-1.885, 9.75-2.789l0.00-117.827 
		c-30.827,9.174-51.884,29.808-51.884,69.192L 93.005,145.73 c-0.884-78.769, 60.692-136.00, 136.654-145.403L 229.659-31.50 l 39.384,0.00 l0.00,30.923 
		C 367.582,6.846, 418.005,63.077, 418.005,136.77z M 186.005,327.615c0.00,29.154, 20.962,43.077, 43.731,47.346l0.00-90.654 
		C 194.621,296.231, 186.005,305.50, 186.005,327.615z M 269.12,73.423l0.00,107.27 c 39.385-10.692, 59.173-24.558, 59.173-54.847
		C 328.293,89.885, 308.505,76.962, 269.12,73.423z"  />
<glyph unicode="&#xe01c;" d="M 255.50-31.50c-141.163,0.00-256.00,114.837-256.00,256.00s 114.837,256.00, 256.00,256.00s 256.00-114.837, 256.00-256.00S 396.663-31.50, 255.50-31.50z
		 M 255.50,412.582c-103.714,0.00-188.082-84.367-188.082-188.082c0.00-103.715, 84.367-188.082, 188.082-188.082
		c 103.714,0.00, 188.082,84.367, 188.082,188.082C 443.582,328.214, 359.214,412.582, 255.50,412.582z M 374.357,203.602l-56.163,0.00 l0.00-93.387 
		c0.00-5.756-4.694-10.449-10.449-10.449l-104.49,0.00 c-5.755,0.00-10.449,4.693-10.449,10.449l0.00,93.387 L 135.01,203.602 c-4.00,0.00-5.265,5.857-2.816,9.041
		l 118.02,154.103c 2.429,3.184, 6.47,3.938, 8.939,0.734l 118.021-155.224C 379.663,209.092, 378.357,203.602, 374.357,203.602z"  />
<glyph unicode="&#xe01d;" d="M 465.034,198.969L 332.345,198.969 l0.00-217.34 c0.00-7.002-6.052-13.129-13.154-13.129L 191.752-31.50 c-7.002,0.00-13.079,6.077-13.079,13.129l0.00,217.34 
		L 46.009,198.969 c-7.052,0.00-9.277,4.802-4.976,10.354L 247.669,476.352c 4.302,5.577, 11.329,5.502, 15.655-0.05l 206.611-266.954
		C 474.287,203.771, 472.036,198.969, 465.034,198.969z"  />
<glyph unicode="&#xe01e;" d="M 511.499,55.894c-43.578,103.694-191.069,101.85-258.917,101.322l-0.132-112.502c0.00-6.194-4.086-8.259-9.05-4.568
		L 3.241,218.058c-5.009,3.689-4.965,9.686,0.00,13.354L 243.796,408.884c 4.964,3.646, 9.027,1.582, 9.027-4.568l-0.109-101.564
		C 303.144,298.798, 508.38,269.629, 511.499,55.894z"  />
<glyph unicode="&#xe01f;" d="M 449.212,263.885l-26.347,0.00 l0.00,98.50 C 422.865,423.096, 365.895,480.50, 305.76,480.50L 205.23,480.50 c-60.163,0.00-117.115-57.404-117.115-118.115
		l0.00-19.731 l 78.77,0.00 l0.00,19.731 c0.00,27.577, 12.365,39.346, 39.384,39.346l 98.462,0.00 c 27.02,0.00, 39.385-11.77, 39.385-39.346l0.00-98.50 L 61.769,263.885 
		c-7.191,0.00-13.038-5.173-13.038-11.558l0.00-272.269 c0.00-6.385, 5.847-11.558, 13.038-11.558L 449.23-31.50 c 7.192,0.00, 13.039,5.173, 13.039,11.558
		L 462.269,252.327 C 462.25,258.711, 456.404,263.885, 449.212,263.885z M 275.173,117.558l0.00-50.596 c0.00-5.424-4.433-9.847-9.846-9.847l-19.692,0.00 
		c-5.414,0.00-9.847,4.423-9.847,9.847l0.00,50.596 c-11.74,6.827-19.692,19.346-19.692,33.923c0.00,21.75, 17.645,39.365, 39.385,39.365
		s 39.385-17.615, 39.385-39.365C 294.865,136.942, 286.913,124.385, 275.173,117.558z"  />
<glyph unicode="&#xe021;" d="M 237.208,202.43l0.00-160.943 c0.00-6.252-0.206-36.404-36.583-36.404c-28.884,0.00-36.583,19.293-36.583,36.404l0.00,8.968 
		c0.00,5.001-4.117,9.218-9.146,9.271l-18.292,0.00 c-5.028-0.053-9.146-4.233-9.146-9.271l0.00-8.968 c0.00-44.996, 28.08-72.986, 71.522-72.986
		c 51.418,0.00, 74.809,37.314, 74.809,72.986L 273.789,202.43 c0.00,0.857-9.002,3.68-18.291,3.68C 246.211,206.109, 237.208,203.287, 237.208,202.43zM 273.791,442.943L 273.791,462.208 c0.00,10.11-8.172,18.292-18.291,18.292s-18.292-8.182-18.292-18.292l0.00-19.265 
		C 114.456,434.057, 17.711,323.861, 17.711,193.16l 0.84,0.00 c 18.532,36.583, 47.783,49.551, 80.811,49.551
		c 31.412,0.00, 59.465-14.88, 78.087-38.709c 18.622,23.829, 46.667,42.21, 78.069,42.21s 59.447-16.595, 78.069-40.478
		c 18.622,23.883, 46.676,36.69, 78.087,36.69c 33.028,0.00, 62.287-12.646, 80.812-49.229l 0.804,0.00 
		C 493.289,323.861, 396.526,434.039, 273.791,442.943z"  />
<glyph unicode="&#xe023;" d="M 450.909,317.323c-28.869,3.255-41.168-0.407-47.974-39.541l-0.259-1.276c-9.063-17.736-24.357-13.076-33.476-2.996
		c-20.917,55.779-70.852,102.477-151.357,102.477c-98.168,0.00-160.956-63.879-160.956-140.076l0.00-5.252 
		c-37.876-15.406-78.86-44.016-44.46-44.016c 20.159,0.00, 25.522,0.00, 44.46,0.00l 0.092,0.00 c 2.885-18.938, 10.801-20.658, 22.434-27.724
		l-9.303-47.456c-2.053-10.228-7.971-23.303-13.187-28.519c-5.215-5.234-0.943-9.932, 9.469-9.932l 37.876,0.00 
		c 10.412,0.00, 14.685,4.254, 9.469,9.47c-5.215,5.215-7.805,17.828-5.752,28.056l 6.473,32.365c 8.138-2.183, 16.922-4.088, 26.28-5.604
		l 1.572-7.841c 2.053-10.246-0.50-22.859-5.752-28.038c-5.234-5.215-0.943-9.469, 9.469-9.469l 37.876,0.00 
		c 10.412,0.00, 14.685,4.254, 9.469,9.469c-5.216,5.197-11.134,17.792-13.187,28.038l-0.703,3.514c 12.28-0.813, 25.06-1.276, 38.284-1.276
		c 9.266,0.00, 18.328,0.277, 27.168,0.647l-4.328-21.786c-2.053-10.209-7.971-22.822-13.187-28.038c-5.197-5.215-0.943-9.469, 9.469-9.469
		l 37.876,0.00 c 10.412,0.00, 14.685,4.254, 9.469,9.469c-5.178,5.216-7.805,17.829-5.752,28.038l 5.031,25.115
		c 16.719,2.183, 31.977,5.326, 45.107,9.469l 3.126-15.646c 2.053-10.208-0.50-22.821-5.752-28.037c-5.253-5.215-0.943-9.469, 9.469-9.469
		l 37.877,0.00 c 10.412,0.00, 14.684,4.254, 9.469,9.469c-5.216,5.216-11.134,17.829-13.187,28.037l-6.491,32.458
		c 12.631,24.728, 62.122,66.469, 98.427,73.959l 25.559,1.979c 10.69,0.018, 16.054,1.72, 18.587,13.427
		c 3.033,13.815, 5.013,18.18, 5.789,39.485C 511.996,306.578, 450.909,317.323, 450.909,317.323z"  />
<glyph unicode="&#xe025;" d="M 328.929,434.785c 0.179-1.518-10.00-64.00-72.84-64.00c-62.839,0.00-73.339,62.447-73.143,64.00L-0.50,288.50l 73.143-73.143l 73.143,48.839
		L 145.786,32.50 c0.00-10.054, 8.232-18.285, 18.286-18.285l 182.857,0.00 c 10.054,0.00, 18.285,8.231, 18.285,18.285L 365.214,264.196 l 73.144-48.839L 511.50,288.50
		L 328.929,434.785z"  />
<glyph unicode="&#xe026;" d="M 447.50,328.375L 447.50,184.391L 447.50,168.375 	zM 495.50,328.50l0.00,8.00 c0.00,4.398-3.594,8.00-8.00,8.00s-40.00,0.00-40.00,0.00l0.00,9.203 c0.00,10.125-6.781,18.672-16.00,21.547L 431.50,440.50 l-352.00,0.00 l0.00-65.25 
	c-9.219-2.875-16.00-11.422-16.00-21.547l0.00-9.203 c0.00,0.00-35.594,0.00-40.00,0.00s-8.00-3.602-8.00-8.00l0.00-8.00 c-8.797,0.00-16.00-7.328-16.00-16.125l0.00-80.00 
	c0.00-8.805, 7.203-15.875, 16.00-15.875l0.00-8.00 c0.00-4.398, 3.594-8.00, 8.00-8.00s 40.00,0.00, 40.00,0.00l0.00-184.00 c0.00-4.398, 3.594-8.00, 8.00-8.00l 32.00,0.00 c 4.406,0.00, 8.00,3.602, 8.00,8.00l0.00,24.00 l 288.00,0.00 l0.00-24.00 
	c0.00-4.398, 3.594-8.00, 8.00-8.00l 32.00,0.00 c 4.406,0.00, 8.00,3.602, 8.00,8.00l0.00,184.00 c0.00,0.00, 35.594,0.00, 40.00,0.00s 8.00,3.602, 8.00,8.00l0.00,8.00 c 8.797,0.00, 16.00,7.07, 16.00,15.875l0.00,80.00 
	C 511.50,321.172, 504.297,328.50, 495.50,328.50z M 431.50,134.789l-16.00-14.289l-64.00,0.00 l0.00,31.875 l 80.00,16.00L 431.50,134.789 z M 95.50,320.375
	c0.00,4.398, 3.594,8.125, 8.00,8.125l 304.00,0.00 c 4.406,0.00, 8.00-3.711, 8.00-8.125L 415.50,245.00 c0.00-4.406-3.391-9.203-7.547-10.672c0.00,0.00-50.641-19.633-152.453-19.633
	s-152.453,19.633-152.453,19.633C 98.891,235.797, 95.50,240.594, 95.50,245.00L 95.50,320.375 z M 31.50,216.50c 8.797,0.00, 16.00,7.07, 16.00,15.875l0.00,80.00 
	c0.00,8.797-7.203,16.125-16.00,16.125c 3.781,0.00, 28.219,0.00, 32.00,0.00l0.00-2.32 L 63.50,216.50 C 59.719,216.50, 35.281,216.50, 31.50,216.50z M 159.50,88.50l-48.00,0.00 l0.00,16.00 l 48.00,0.00 
	L 159.50,88.50 z M 159.50,120.50l-64.00,0.00 l-16.00,14.289l0.00,33.602 l 80.00-16.00L 159.50,120.50 z M 303.50,56.50l-96.00,0.00 l0.00,32.00 l 96.00,0.00 L 303.50,56.50 z M 335.50,136.50l-160.00,0.00 l0.00,16.00 l 160.00,0.00 L 335.50,136.50 z
	 M 335.50,168.50l-160.00,0.00 l0.00,16.00 l 160.00,0.00 L 335.50,168.50 z M 351.50,88.50l0.00,16.00 l 48.00,0.00 l0.00-16.00 L 351.50,88.50 z M 479.50,216.50c-3.781,0.00-28.219,0.00-32.00,0.00l0.00,112.00 c 3.781,0.00, 28.219,0.00, 32.00,0.00
	c-8.797,0.00-16.00-7.328-16.00-16.125l0.00-80.00 C 463.50,223.57, 470.703,216.50, 479.50,216.50z"  />
<glyph unicode="&#xe027;" d="M 460.30,255.22c0.00,33.14-19.74,61.48-48.02,74.40c 4.359,8.42, 7.06,17.84, 7.06,28.00c0.00,33.96-27.52,61.44-61.439,61.44
		c-7.46,0.00-14.50-1.52-21.12-3.96c-3.221,36.62-33.62,65.40-71.04,65.40c-29.221,0.00-54.26-17.52-65.42-42.62
		c-5.38,0.98-10.82,1.66-16.50,1.66c-50.88,0.00-92.16-41.24-92.16-92.16c0.00-11.52, 2.36-22.40, 6.22-32.56
		c-26.98-6.44-47.18-30.58-47.18-59.60c0.00-28.08, 18.96-51.48, 44.66-58.84c-2.14-7.36-3.38-15.00-3.70-23.079
		c-2.68-68.561, 81.92-111.36, 122.88-53.681l0.00-130.64 l-20.48-20.48l 143.36,0.00 l-20.479,20.48l0.00,138.82 c 40.96-37.70, 84.479-4.421, 81.92,45.50
		c-0.04,0.959-0.24,1.859-0.28,2.799C 434.00,185.141, 460.30,216.98, 460.30,255.22z"  />
<glyph unicode="&#xe028;" d="M 467.854,74.731c 5.851,0.00, 7.22,3.341, 3.091,7.428l-100.712,98.804l 75.586,0.00 c 5.852,0.00, 7.221,3.34, 3.092,7.428l-100.712,98.803
		l 54.36,0.00 c 5.83,0.00, 7.199,3.341, 3.091,7.428L 304.938,393.425l 33.114,0.00 c 5.83,0.00, 7.241,3.341, 3.071,7.428L 263.11,477.435
		c-4.191,4.088-11.038,4.088-15.188,0.00l-78.055-76.582c-4.129-4.046-2.801-7.428, 3.07-7.428l 33.114,0.00 l-100.67-98.804
		c-4.15-4.046-2.822-7.428, 3.05-7.428l 54.361,0.00 L 62.122,188.391c-4.17-4.046-2.801-7.428, 3.05-7.428l 75.627,0.00 L 40.087,82.159
		c-4.17-4.046-2.801-7.428, 3.05-7.428l 159.098,0.00 l0.00-84.984 L 180.989-31.50l 148.723,0.00 l-21.246,21.247l0.00,84.984 L 467.854,74.731 z"  />
<glyph unicode="&#xe029;" d="M 452.423,165.423l0.00,78.77 L 419.029,441.769C 415.74,463.192, 395.298,480.50, 373.615,480.50l-236.25,0.00 
			c-21.683,0.00-42.105-17.308-45.413-38.731L 58.577,244.192l0.00-78.77 c0.00,0.00, 19.692-78.769, 78.769-78.769c 19.692,0.00, 26.721,0.00, 26.721,0.00
			L 58.577-31.50l 78.769,0.00 l 62.779,118.154l 109.096,0.00 L 373.654-31.50l 78.769,0.00 L 345.337,86.654c0.00,0.00, 8.625,0.00, 28.317,0.00
			C 432.73,86.654, 452.423,165.423, 452.423,165.423z M 176.731,145.73l-78.77,19.692L 97.961,224.50 l 78.77-39.385L 176.731,145.73 z M 255.50,218.355
			c-78.769,0.00-157.539,45.529-157.539,45.529l 30.442,171.692c 0.356,2.212, 4.211,5.539, 6.481,5.539L 377.02,441.115 
			c 2.269,0.00, 6.144-3.327, 6.48-5.558l 29.538-171.673C 413.038,263.885, 334.27,218.355, 255.50,218.355z M 334.27,145.73l0.00,39.385 
			l 78.769,39.385l0.00-59.077 L 334.27,145.73z"  />
<glyph unicode="&#xe02a;" d="M 16.643,116.822c0.00-92.572, 87.854-148.322, 163.429-148.322s 163.408,56.873, 163.408,149.381
		c0.00,126.234-123.699,198.463-163.408,331.284C 138.638,316.344, 16.643,243.035, 16.643,116.822z M 137.516,44.074
		c-46.442,2.202-76.904,37.59-77.133,72.769c-0.229,35.179, 18.826,80.229, 35.055,108.093c 10.598,19.512, 31.543,15.19, 26.847,0.00
		c-9.288-28.032-14.254-70.733-14.254-103.50c0.00-23.896, 11.761-47.004, 29.486-54.92C 155.24,58.599, 159.687,45.176, 137.516,44.074zM 330.949,314.328c0.00-46.296, 43.928-74.161, 81.704-74.161s 81.704,28.447, 81.704,74.701
		c0.00,63.106-61.839,99.221-81.704,165.631C 391.915,414.089, 330.949,377.435, 330.949,314.328z M 391.375,277.965
		c-23.21,1.101-38.441,18.784-38.566,36.363c-0.083,17.559, 9.413,40.146, 17.538,54.068c 5.319,9.745, 15.771,7.542, 13.424,0.00
		c-4.655-14.026-7.148-35.366-7.148-51.803c0.00-11.948, 5.881-23.48, 14.753-27.449C 400.228,285.217, 402.472,278.505, 391.375,277.965z"  />
<glyph unicode="&#xe02b;" d="M 300.532,357.697l 45.021,77.991L 255.50,480.50l-90.054-44.812l 45.022-77.991l-67.538-286.541L 255.50-31.50l 112.569,102.336
		L 300.532,357.697z"  />
<glyph unicode="&#xe02c;" d="M 298.155,405.826l0.00-63.997 l-21.333-106.663l 191.992,0.00 l0.00-42.665 l-21.332-21.332l-85.33-127.995L 255.49,43.174 l-42.665,21.333L 170.16,64.507 
		L 170.16,235.166 l 63.997,85.33l 42.665,85.33L 298.155,405.826  M 298.155,448.491l-21.333,0.00 c-16.145,0.00-30.937-9.125-38.165-23.583l-40.936-81.892
		l-61.695-82.205c-5.542-7.438-8.531-16.396-8.531-25.604l0.00-170.66 c0.00-23.54, 19.113-42.665, 42.665-42.665l 32.592,0.00 l 33.666-16.832
		c 5.927-2.959, 12.458-4.50, 19.093-4.50l 106.662,0.00 c 14.271,0.00, 27.583,7.125, 35.499,19.041l 82.976,124.453l 18.354,18.333
		c 8.00,7.999, 12.499,18.854, 12.499,30.165l0.00,42.665 c0.00,23.541-19.103,42.665-42.664,42.665L 328.862,277.872 c0.00,0.00, 11.979,61.185, 11.979,63.997
		L 340.841,405.868 C 340.82,429.367, 321.695,448.491, 298.155,448.491L 298.155,448.491z M 84.83,277.831L-0.50,277.831 l0.00-277.322 l 85.33,0.00 
		c 11.729,0.00, 21.332,9.604, 21.332,21.333L 106.162,256.499 C 106.162,268.228, 96.559,277.831, 84.83,277.831z"  />
<glyph unicode="&#xe02d;" d="M 362.167,405.812l 85.333-128.00l 21.333-21.333l0.00-42.667 L 276.834,213.812 l 21.332-106.666l0.00-64.001 l-21.332,0.00 l-42.667,85.334l-64.00,85.333L 170.167,384.479 
		l 42.667,0.00 L 255.50,405.812L 362.167,405.812  M 362.167,448.479L 255.50,448.479 c-6.635,0.00-13.167-1.542-19.094-4.50L 202.74,427.146l-32.573,0.00 
		c-23.552,0.00-42.667-19.125-42.667-42.667l0.00-170.667 c0.00-9.229, 2.99-18.208, 8.531-25.604L 197.729,106.00l 40.938-81.896
		c 7.229-14.50, 22.021-23.584, 38.167-23.584l 21.332,0.00 c 23.553,0.00, 42.668,19.125, 42.668,42.667l0.00,64.00 c0.00,2.813-0.281,5.667-0.834,8.417
		l-11.115,55.583l 139.948,0.00 c 23.553,0.00, 42.667,19.125, 42.667,42.667l0.00,42.667 c0.00,11.313-4.50,22.167-12.50,30.167l-18.344,18.354
		L 397.667,429.521C 389.75,441.354, 376.438,448.479, 362.167,448.479L 362.167,448.479z M 84.833,427.146L-0.50,427.146 l0.00-277.333 l 85.333,0.00 
		c 11.729,0.00, 21.333,9.604, 21.333,21.334L 106.166,405.812 C 106.167,417.542, 96.563,427.146, 84.833,427.146z"  />
<glyph unicode="&#xe035;" d="M 501.26,326.899c 5.641,0.00, 10.24,4.601, 10.24,10.24l0.00,10.24 L 460.30,470.26l-51.20-122.88l0.00-10.24 c0.00-5.64, 4.601-10.24, 10.24-10.24
		l 10.24,0.00 l0.00-40.96 l-10.24,0.00 c-5.64,0.00-10.24-4.60-10.24-10.239l0.00-20.48 c0.00-5.64, 4.601-10.24, 10.24-10.24l 10.24,0.00 L 429.58,122.10 L 409.10,122.10 l0.00,20.48 L 388.62,142.58 L 388.62,204.02 
		l-0.601,0.00 c-5.08,47.46-44.92,86.32-97.80,98.40l-24.479,24.479L 265.74,357.62 c0.00,5.64-4.601,10.239-10.24,10.239s-10.24-4.60-10.24-10.239
		l0.00-30.721 L 220.78,302.42c-52.88-12.08-92.72-50.90-97.80-98.40l-0.60,0.00 l0.00-61.439 L 101.90,142.581 l0.00-20.48 L 81.42,122.101 l0.00,122.88 l 10.24,0.00 
		c 5.64,0.00, 10.24,4.601, 10.24,10.24L 101.90,275.70 c0.00,5.64-4.60,10.239-10.24,10.239L 81.42,285.939 l0.00,40.96 l 10.24,0.00 c 5.64,0.00, 10.24,4.601, 10.24,10.24l0.00,10.24 
		L 50.70,470.26L-0.50,347.38l0.00-10.24 c0.00-5.64, 4.60-10.24, 10.24-10.24l 10.24,0.00 l0.00-40.96 L 9.74,285.94 c-5.64,0.00-10.24-4.60-10.24-10.239l0.00-20.48 
		c0.00-5.64, 4.60-10.24, 10.24-10.24l 10.24,0.00 L 19.98-21.26 l 471.04,0.00 L 491.02,244.979 l 10.24,0.00 c 5.641,0.00, 10.24,4.601, 10.24,10.24L 511.50,275.70 
		c0.00,5.64-4.60,10.239-10.24,10.239l-10.24,0.00 l0.00,40.96 L 501.26,326.899 z M 101.90,19.70L 81.42,19.70 l0.00,81.92 l 20.48,0.00 L 101.90,19.70 z M 142.86,19.70l-20.48,0.00 l0.00,81.92 l 20.48,0.00 
		L 142.86,19.70 z M 183.82,19.70l-20.48,0.00 l0.00,81.92 l 20.48,0.00 L 183.82,19.70 z M 347.66,19.70l-20.48,0.00 l0.00,81.92 l 20.48,0.00 L 347.66,19.70 z M 388.62,19.70l-20.48,0.00 l0.00,81.92 l 20.48,0.00 
		L 388.62,19.70 z M 429.58,19.70L 409.10,19.70 l0.00,81.92 l 20.48,0.00 L 429.58,19.70 z"  />
<glyph unicode="&#xe036;" d="M-0.50,96.50L 511.50,96.50L 511.50-31.50L-0.50-31.50zM 468.833,160.50l-42.666,0.00 l-85.334,256.00L 340.833,459.167 l-42.666,0.00 L 298.167,480.50 l-85.333,0.00 l0.00-21.333 l-42.667,0.00 L 170.167,416.50 l-85.333-256.00L 42.167,160.50 l0.00-42.667 l 426.667,0.00 
		L 468.834,160.50 z M 276.833,203.166l-42.667,0.00 l0.00,64.00 l 42.667,0.00 L 276.833,203.166 z M 276.833,309.833l-42.667,0.00 L 234.166,352.50 l 42.667,0.00 L 276.833,309.833 z M 276.833,373.833l-42.667,0.00 
		L 234.166,395.167 l 42.667,0.00 L 276.833,373.833 z"  />
<glyph unicode="&#xe037;" d="M 194.06,214.26l 225.28,0.00 l 61.44-61.439l0.00-20.48 L 194.06,132.341 L 194.06,214.26 z M 501.26-11.02l0.00-20.48 L 480.78-31.50 L 30.22-31.50 L 30.22,255.22 L 9.74,255.22 L 9.74,275.70 
		l 81.92,80.88L 91.66,419.06 L 50.70,419.06 L 50.70,439.54 l 40.96,0.00 L 91.66,480.50 l 20.48,0.00 l0.00-40.96 l 40.96,0.00 l0.00-20.48 l-40.96,0.00 l0.00-62.48 l 81.92-80.88l0.00-20.48 l-20.48,0.00 l0.00-143.36 l 307.20,0.00 l0.00-122.88 
		L 501.26-11.02 z M 235.02,91.38l-20.48,0.00 l0.00-81.92 l 20.48,0.00 L 235.02,91.38 z M 275.98,91.38L 255.50,91.38 l0.00-81.92 l 20.48,0.00 L 275.98,91.38 z M 316.94,91.38l-20.48,0.00 l0.00-81.92 l 20.48,0.00 
		L 316.94,91.38 z M 357.90,91.38l-20.48,0.00 l0.00-81.92 l 20.48,0.00 L 357.90,91.38 z M 398.86,91.38l-20.48,0.00 l0.00-81.92 l 20.48,0.00 L 398.86,91.38 z M 439.82,91.38l-20.48,0.00 l0.00-81.92 l 20.48,0.00 
		L 439.82,91.38 z"  />
<glyph unicode="&#xe038;" d="M 511.50,206.214L 511.50,224.50 c0.00,0.00,0.00,0.00-18.286,0.00c-18.285,0.00-89.428,43.429-91.428,54.856l0.00,18.286 l 73.143,0.00 l0.00,18.286 c0.00,0.00,0.00,0.00-18.286,0.00
		c-18.285,0.00-89.429,36.571-91.429,36.571l0.00,18.285 l 36.572,0.00 L 401.786,389.071 c0.00,0.00,0.00,0.00-18.286,0.00s-71.143,36.571-73.143,36.571
		c-3.50,0.00-106.214,0.00-109.714,0.00c-2.00,0.00-54.857-36.571-73.143-36.571s-18.286,0.00-18.286,0.00l0.00-18.286 l 36.571,0.00 L 145.785,352.50 
		c-2.00,0.00-73.143-36.571-91.429-36.571s-18.286,0.00-18.286,0.00l0.00-18.286 l 73.143,0.00 l0.00-18.286 c-2.00-11.428-73.143-54.856-91.429-54.856
		s-18.286,0.00-18.286,0.00l0.00-18.286 l 91.429,0.00 l0.00-91.428 L 36.071,114.787 l0.00-91.429 l 438.857,0.00 l0.00,91.429 l-54.857,0.00 l0.00,91.428 L 511.50,206.215 z M 164.071,151.357L 127.50,151.357 l0.00,54.856 
		l 36.571,0.00 L 164.071,151.357 z M 237.214,151.357l-36.571,0.00 l0.00,54.856 l 36.571,0.00 L 237.214,151.357 z M 310.357,151.357l-36.571,0.00 l0.00,54.856 l 36.571,0.00 L 310.357,151.357 z
		 M 383.50,151.357l-36.571,0.00 l0.00,54.856 L 383.50,206.213 L 383.50,151.357 z"  />
<glyph unicode="&#xe039;" d="M 322.652,295.111c 6.739,4.335, 11.469,11.547, 11.469,20.177c0.00,13.478-10.937,24.394-24.395,24.394
		s-24.394-10.916-24.394-24.394c0.00-8.63, 5.517-16.079, 11.468-20.177c-30.276,0.00-67.784-22.227-67.784-40.354l 161.418,0.00 
		C 390.436,272.884, 354.495,295.111, 322.652,295.111zM 450.968,173.298l0.00,59.291 c 1.005-9.714, 8.611-18.167, 18.68-18.167c 0.355,0.00, 0.69,0.00, 1.025,0.00
		c 10.68,0.00, 19.586,8.373, 20.138,19.172l 0.157,2.817c 0.197,3.114, 0.375,6.266, 0.375,9.399c0.00,135.901-64.375,210.739-181.262,210.739
		c-116.896,0.00-181.281-74.837-181.281-210.739c0.00-3.153, 0.158-6.286, 0.355-9.399l 0.167-2.817
		c 0.562-11.152, 10.246-19.686, 21.163-19.152c 8.601,0.434, 15.537,6.227, 18.059,13.95l0.00-39.743 
		c-36.739-27.351-50.443-65.064-50.443-65.064l-88.434,56.275L-0.50,149.712l 138.719-157.261l 292.572,0.00 c0.00,0.00, 80.709,4.611, 80.709,80.709
		C 504.17,116.293, 477.451,149.731, 450.968,173.298z M 390.436,214.401l0.00,20.177 L 229.017,234.578 l0.00-20.177 
		c-15.271-2.542-28.65-7.251-40.354-13.163l0.00,43.429 c0.00,5.557-4.542,10.089-10.089,10.089c-4.335,0.00-7.99-2.818-9.399-6.70
		c 0.621,113.064, 46.69,168.118, 140.867,168.118c 94.817,0.00, 140.906-55.724, 140.906-170.384c0.00-0.315-0.02-0.571-0.039-0.926
		c-0.099,5.478-4.592,9.892-10.05,9.892c-5.537,0.00-10.089-4.532-10.089-10.089l0.00-55.015 
		C 408.524,205.969, 390.436,214.401, 390.436,214.401z"  />
<glyph unicode="&#xe03a;" d="M 506.424,174.177L 352.769,20.512c-3.347-3.329-8.992-1.909-12.339,1.42l-27.635,27.771l 124.449,124.457
		c 9.145,9.127, 8.435,16.065,0.00,24.475L 205.349,430.385l 52.042,0.00 c 4.732,0.00, 15.634-1.386, 18.389-3.06c 2.738-1.682, 7.758-5.823, 11.155-9.178
		L 506.458,198.65C 512.645,192.439, 513.709,181.47, 506.424,174.177zM 176.937,424.258c-3.363,3.355-10.006,6.127-14.772,6.127L 8.154,430.385 c-4.766,0.00-8.654-3.896-8.654-8.654l0.00-154.02 
		c0.00-4.741, 2.755-11.409, 6.119-14.781l 231.76-231.743c 3.38-3.347, 8.891-3.347, 12.237,0.00l 159.082,159.098
		c 3.347,3.347, 3.347,8.865,0.00,12.237L 176.937,424.258z M 110.512,319.373c-13.521-13.513-35.426-13.513-48.948,0.00
		c-13.521,13.521-13.521,35.426,0.00,48.948c 13.522,13.513, 35.427,13.513, 48.948,0.00C 124.034,354.799, 124.034,332.895, 110.512,319.373z"  />
<glyph unicode="&#xe03b;" d="M 220.219,472.853c-4.119,4.172-12.442,7.618-18.369,7.618L 10.345,480.471 C 4.46,480.471-0.50,475.627-0.50,469.71l0.00-191.516 
		c0.00-5.896, 3.468-14.187, 7.65-18.38l 288.183-288.173c 4.183-4.15, 11.055-4.15, 15.217,0.00l 197.853,197.843
		c 4.119,4.161, 4.141,11.023,0.00,15.216L 220.219,472.853z M 137.539,342.432c-16.813-16.803-44.051-16.803-60.865,0.00
		c-16.813,16.814-16.813,44.052,0.00,60.865c 16.813,16.803, 44.051,16.803, 60.865,0.00C 154.353,386.483, 154.353,359.246, 137.539,342.432z"  />
<glyph unicode="&#xe03c;" d="M 286.22,357.62L 286.22,398.58 L 265.74,398.58 L 265.74,480.50 l-20.48,0.00 l0.00-81.92 L 224.78,398.58 l0.00-40.96 L-0.50,357.62 L-0.50-31.50 l 512.00,0.00 L 511.50,357.62 L 286.22,357.62 z M 60.94,214.26L 19.98,214.26 l0.00,102.40 
	l 40.96,0.00 L 60.94,214.26 z M 429.58,70.90L 81.42,70.90 L 81.42,316.66 l 348.16,0.00 L 429.58,70.90 z M 491.02,214.26l-40.96,0.00 l0.00,102.40 l 40.96,0.00 L 491.02,214.26 z"  />
<glyph unicode="&#xe03d;" d="M 468.833,245.833l0.00,21.333 L 340.834,267.166 l0.00,64.00 L 319.50,331.166 l0.00-64.00 l-128.00,0.00 l0.00,64.00 l-21.333,0.00 l0.00-64.00 l-128.00,0.00 l0.00-21.333 l 128.00,0.00 l0.00-64.00 l-128.00,0.00 L 42.167,160.50 l 128.00,0.00 l0.00-64.00 l-128.00,0.00 l0.00-21.333 
			l 128.00,0.00 l0.00-64.00 L 191.50,11.167 l0.00,64.00 l 128.00,0.00 l0.00-64.00 l 21.334,0.00 l0.00,64.00 l 127.999,0.00 L 468.833,96.50 L 340.834,96.50 l0.00,64.00 l 127.999,0.00 l0.00,21.333 L 340.834,181.833 l0.00,64.00 L 468.833,245.833 z M 319.50,96.50l-128.00,0.00 l0.00,64.00 l 128.00,0.00 
			L 319.50,96.50 z M 319.50,181.833l-128.00,0.00 l0.00,64.00 l 128.00,0.00 L 319.50,181.833 zM 468.833,11.167L 42.167,11.167 l0.00,320.00 l 426.667,0.00 L 468.834,11.167 z M 468.833,373.833L 42.167,373.833 l0.00,64.00 l 426.667,0.00 L 468.834,373.833 z M 63.50,480.50
			c-35.208,0.00-64.00-28.792-64.00-64.00l0.00-384.00 c0.00-35.208, 28.792-64.00, 64.00-64.00l 384.00,0.00 c 35.208,0.00, 64.00,28.792, 64.00,64.00l0.00,384.00 c0.00,35.208-28.792,64.00-64.00,64.00L 63.50,480.50 z"  />
<glyph unicode="&#xe03e;" d="M 447.452,420.438l-0.086-0.107C 449.589,418.184, 447.452,420.438, 447.452,420.438zM 446.99-31.50c-26.371,0.00-47.739,21.41-47.739,47.738c0.00,26.371, 21.368,47.761, 47.739,47.761
			c 26.393,0.00, 47.76-21.39, 47.76-47.761C 494.75-10.09, 473.383-31.50, 446.99-31.50z M 282.374,62.152
			c 56.78-3.565, 111.53,25.641, 158.26,72.37c 74.70,74.711, 99.814,192.329, 6.528,285.616c-93.276,93.308-211.098,68.333-285.777-6.357
			c-46.729-46.729-76.042-101.383-72.553-158.098l 3.651-3.586l 186.563-186.595L 282.374,62.152z M 126.284,44.95
			c-19.349-19.521-51.088-56.844-60.237-68.483c-10.394,0.688-23.15,11.425-37.377,25.19C 13.337,17.42, 4.307,28.522, 3.556,38.916
			c 11.682,9.148, 49.038,40.803, 68.59,60.13c 11.50,11.468, 27.681,22.763, 34.875,43.164l 41.403,22.742l 43.831-43.787l-22.764-41.446
			C 149.112,72.589, 137.698,56.482, 126.284,44.95z"  />
<glyph unicode="&#xe03f;" d="M 506.73,120.713L 395.767,339.897c-1.743,4.554-9.179,9.833-13.629,11.748l-82.585,34.263L 299.553,427.64 
		c0.00,4.865-3.674,8.833-8.521,8.833L 220.04,436.473 c-4.865,0.00-8.833-3.968-8.833-8.833l0.00-41.731 l-82.447-34.263
		c-4.468-1.915-11.766-7.194-13.474-11.748L 4.306,120.713c0.00-4.865-17.855-25.032, 15.268-42.698s 40.334,8.833, 51.376,21.358
		l 82.205,134.426c 1.553,4.623, 5.038,4.416, 5.038-0.449l0.00-203.157 l0.00-8.833 c0.00-4.882, 3.951-8.832, 8.833-8.832l 176.968,0.00 
		c 4.883,0.00, 8.522,3.95, 8.522,8.832l0.00,8.833 L 352.516,233.35 c0.00,4.865, 3.658,5.072, 5.176,0.449L 440.00,99.373
		c 11.041-12.525, 18.27-39.024, 51.394-21.358C 524.517,95.681, 506.73,115.848, 506.73,120.713z"  />
<glyph unicode="&#xe040;" d="M 255.50,328.667c-56.792,0.00-104.167-47.396-104.167-104.167c0.00-56.771, 47.375-104.166, 104.167-104.166
		c 56.792,0.00, 104.167,47.395, 104.167,104.166C 359.667,281.271, 312.292,328.667, 255.50,328.667z M 360.052,360.521l 60.74,60.729
		l 31.50-31.458l-60.75-60.729C 382.458,340.875, 371.875,351.437, 360.052,360.521z M 119.458,329.062l-60.74,60.729l 31.49,31.458
		l 60.739-60.729C 139.125,351.437, 128.542,340.875, 119.458,329.062z M 85.094,203.166L-0.50,203.166 l0.00,42.667 l 85.594,0.00 
		C 83.188,245.833, 83.188,203.166, 85.094,203.166z M 234.167,394.896L 234.167,480.50 l 42.667,0.00 l0.00-85.604 C 276.833,396.792, 234.167,396.792, 234.167,394.896
		z M 276.833,54.104L 276.833-31.50 l-42.667,0.00 l0.00,85.604 C 234.167,52.208, 276.833,52.208, 276.833,54.104z M 511.50,245.833l0.00-42.667 l-85.583,0.00 
		c 1.896,0.00, 1.896,42.667,0.00,42.667L 511.50,245.833 z M 391.542,119.937l 60.708-60.708l-31.458-31.479l-60.74,60.729
		C 371.875,97.562, 382.458,108.125, 391.542,119.937z M 150.969,88.459l-60.74-60.709L 58.74,59.208l 60.719,60.751
		C 128.563,108.125, 139.125,97.562, 150.969,88.459z"  />
<glyph unicode="&#xe041;" d="M 447.50,373.834l-85.333,0.00 L 362.167,395.167 c0.00,35.292-28.709,64.00-64.00,64.00l-85.334,0.00 c-35.291,0.00-64.00-28.708-64.00-64.00l0.00-21.333 L 63.50,373.834 
		c-35.208,0.00-64.00-28.792-64.00-64.00l0.00-256.001 c0.00-35.208, 28.792-64.00, 64.00-64.00l 384.00,0.00 c 35.208,0.00, 64.00,28.792, 64.00,64.00L 511.50,309.834 
		C 511.50,345.042, 482.708,373.834, 447.50,373.834z M 95.50,32.50L 52.833,32.50 c-5.875,0.00-10.667,4.792-10.667,10.667l0.00,42.667 
		c0.00,5.875, 3.396,7.271, 7.542,3.125l 48.958-48.917C 102.771,35.896, 101.375,32.50, 95.50,32.50z M 98.625,323.625l-48.958-48.916
		c-4.104-4.146-7.542-2.792-7.542,3.104l0.00,42.667 c0.00,5.875, 4.792,10.667, 10.667,10.667l 42.667,0.00 
		C 101.375,331.167, 102.771,327.771, 98.625,323.625z M 319.50,373.834l-128.00,0.00 L 191.50,395.167 c0.00,11.771, 9.583,21.333, 21.333,21.333l 85.334,0.00 
		c 11.75,0.00, 21.333-9.563, 21.333-21.333L 319.50,373.834 z M 468.833,43.167c0.00-5.875-4.791-10.667-10.666-10.667L 415.50,32.50 
		c-5.875,0.00-7.271,3.396-3.125,7.542l 48.958,48.917c 4.104,4.146, 7.542,2.791, 7.542-3.104L 468.833,43.167L 468.833,43.167z
		 M 468.833,277.834c0.00-5.875-3.396-7.271-7.541-3.125l-48.959,48.916c-4.104,4.146-2.75,7.563, 3.125,7.563l 42.667,0.00 
		c 5.875,0.00, 10.667-4.791, 10.667-10.666L 468.833,277.834L 468.833,277.834z"  />
<glyph unicode="&#xe043;" d="M 418.723,71.24c-2.277,0.00-9.329,0.14-10.787,0.14l-60.969,0.00 l-136.44,143.192l 229.97,0.00 l 70.238,143.192l-70.238,81.824
		L 326.591,480.50l-81.825,0.00 l 38.335-163.648L 113.00,316.852 l-11.426,20.456l-75.671,19.517c-10.788,3.336-21.295-0.739-24.691-11.526
		c-3.396-10.708, 2.637-21.535, 13.424-24.931l 65.204-17.26l 21.735-88.536l 52.378,0.00 l 68.34-71.637l-53.277-41.971
		c-10.708,6.412-23.173,10.408-36.597,10.408c-39.454,0.00-71.437-31.982-71.437-71.457c0.00-39.474, 31.983-71.416, 71.437-71.416
		c 39.474,0.00, 71.436,31.982, 71.436,71.457c0.00,11.066-2.736,21.435-7.231,30.783l 53.857,42.551l 78.908-82.823l 39.273,0.00 
		c-0.639,0.00-1.038-6.753-1.038-10.269c0.00-28.206, 22.853-51.10, 51.06-51.10c 28.167,0.00, 51.061,22.873, 51.061,51.08
		S 446.89,71.24, 418.723,71.24z M 132.418,9.412c-16.86,0.00-30.524,13.704-30.524,30.524c0.00,16.841, 13.664,30.524, 30.524,30.524
		s 30.524-13.684, 30.524-30.524C 162.942,23.116, 149.278,9.412, 132.418,9.412z M 418.723,7.075
		c-7.231,0.00-13.124,5.833-13.124,13.104c0.00,7.231, 5.873,13.125, 13.124,13.125c 7.271,0.00, 13.104-5.873, 13.104-13.125
		C 431.827,12.948, 425.954,7.075, 418.723,7.075z"  />
<glyph unicode="&#xe044;" d="M 248.165,387.778c-115.577,0.00-209.639-94.043-209.639-209.639c0.00-115.586, 94.062-209.639, 209.639-209.639
		c 115.596,0.00, 209.639,94.053, 209.639,209.639C 457.804,293.734, 363.761,387.778, 248.165,387.778z M 248.165,25.674
		c-84.067,0.00-152.465,68.406-152.465,152.465c0.00,84.068, 68.397,152.465, 152.465,152.465S 400.63,262.207, 400.63,178.139
		C 400.63,94.08, 332.232,25.674, 248.165,25.674z M 286.281,178.139c0.00-14.061-7.705-26.224-19.059-32.83l0.00-16.983 
		c0.00-5.239-4.28-9.929-9.528-9.929l-19.059,0.00 c-5.248,0.00-9.529,4.689-9.529,9.929l0.00,16.983 c-11.353,6.606-19.058,18.751-19.058,32.83
		c0.00,14.089, 7.705,26.232, 19.058,32.84L 229.106,280.39 c0.00,5.239, 4.281,9.529, 9.529,9.529l 19.059,0.00 c 5.248,0.00, 9.528-4.29, 9.528-9.529l0.00-69.43 
		C 278.576,204.362, 286.281,192.209, 286.281,178.139z M 248.165,425.112c-9.678,0.00-28.736-0.661-38.116-1.787L 210.049,470.375 
		c0.00,5.249, 4.28,10.125, 9.529,10.125l 57.174,0.00 c 5.249,0.00, 9.529-4.876, 9.529-10.125l0.00-47.05 C 276.901,424.452, 257.843,425.112, 248.165,425.112z
		 M 469.696,353.589l-28.215-28.187c-5.825,7.417-12.116,14.619-18.946,21.459c-6.83,6.83-14.033,13.112-21.459,18.965l 28.178,28.187
		c 3.723,3.704, 9.79,3.704, 13.493,0.00l 26.949-26.949C 473.40,363.369, 473.40,357.292, 469.696,353.589z"  />
<glyph unicode="&#xe048;" d="M 462.27,371.779c 27.192,0.00, 49.23,22.00, 49.23,49.23S 489.462,470.24, 462.27,470.24s-49.231-22.00-49.231-49.23
			c0.00-12.067, 4.51-22.962, 11.692-31.528l-65.375-99.106c-4.808,1.567-9.885,2.635-15.221,2.635c-27.192,0.00-49.23-22.00-49.23-49.23
			c0.00-2.067, 0.375-4.039, 0.615-6.048l-91.654-40.529c-9.019,10.346-22.154,17.02-36.961,17.02c-27.192,0.00-49.231-22.00-49.231-49.231
			c0.00-9.336, 2.741-17.942, 7.231-25.365l-86.019-99.327L 38.886,470.654 L 19.192,470.654 L-0.50,470.654 l0.00-492.309 l 19.692,0.00 l 472.615,0.00 l0.00,19.692 L 491.807,17.73 L 58.423,17.73 
			l 88.548,102.317c 6.106-2.711, 12.808-4.269, 19.914-4.269c 27.192,0.00, 49.23,22.00, 49.23,49.23c0.00,1.75-0.355,3.404-0.509,5.125
			l 92.134,40.722c 9.00-9.952, 21.904-16.309, 36.395-16.309c 27.192,0.00, 49.23,22.00, 49.23,49.231c0.00,11.067-3.76,21.192-9.942,29.403
			l 66.24,100.433C 453.683,372.548, 457.875,371.779, 462.27,371.779zM 70.471,76.808L 38.885,76.808 L 38.885,96.50 l 48.663,0.00 L 70.471,76.808z M 97.961,155.577L 38.885,155.577 L 38.885,175.27 l 59.077,0.00 l0.00,59.077 L 38.885,234.347 l0.00,19.692 
			l 59.077,0.00 l0.00,59.076 L 38.885,313.115 l0.00,19.692 l 59.077,0.00 L 97.962,391.885 L 38.885,391.885 L 38.885,411.577 l 59.077,0.00 L 97.962,470.654 l 19.692,0.00 l0.00-59.077 l 59.077,0.00 L 176.731,470.654 l 19.692,0.00 l0.00-59.077 L 255.50,411.577 L 255.50,470.654 
			l 19.692,0.00 l0.00-59.077 l 59.077,0.00 L 334.269,470.654 l 19.692,0.00 l0.00-59.077 l 59.076,0.00 L 413.037,421.01 c0.00-12.067, 4.51-22.962, 11.692-31.528l-11.692-17.722L 413.037,391.885 l-59.076,0.00 
			l0.00-59.077 l 33.355,0.00 l-12.972-19.692l-20.384,0.00 l0.00-21.346 c-3.192,0.712-6.424,1.24-9.847,1.24c-3.385,0.00-6.653-0.355-9.846-1.01l0.00,21.115 
			l-59.077,0.00 l0.00-59.076 l 20.798,0.00 c-0.711-3.308-1.105-6.731-1.105-10.26c0.00-2.067, 0.375-4.039, 0.615-6.048l-7.702-3.385l-12.605,0.00 l0.00-5.577 
			l-19.692-8.683l0.00,14.26 l-59.077,0.00 l0.00-30.154 c-5.711,4.375-12.404,7.452-19.692,8.962l0.00,21.192 l-59.077,0.00 l0.00-59.077 l 1.106,0.00 
			c-0.712-3.308-1.106-6.73-1.106-10.26c0.00-3.288, 0.731-6.337, 1.336-9.433l-1.336,0.00 l0.00-24.26 l-19.692-22.75L 97.961,155.577 z M 275.192,332.808
			l 59.077,0.00 L 334.269,391.885 l-59.077,0.00 L 275.192,332.808 z M 196.423,332.808L 255.50,332.808 L 255.50,391.885 l-59.077,0.00 L 196.423,332.808 z M 196.423,254.039L 255.50,254.039 l0.00,59.076 l-59.077,0.00 L 196.423,254.039 
			z M 117.654,332.808l 59.077,0.00 L 176.731,391.885 l-59.077,0.00 L 117.654,332.808 z M 117.654,254.039l 59.077,0.00 l0.00,59.076 l-59.077,0.00 L 117.654,254.039 z M 432.73,460.192L 432.73,470.654 
			l-19.692,0.00 L 413.038,421.01 C 413.038,437.097, 420.837,451.222, 432.73,460.192z M 432.73,332.808l 59.077,0.00 l0.00-19.692 L 432.73,313.116 l0.00-59.076 l 59.077,0.00 l0.00-19.692 L 432.73,234.348 
			l0.00-59.077 l 59.077,0.00 l0.00-19.692 L 432.73,155.579 L 432.73,96.50 l 59.077,0.00 l0.00-19.692 L 432.73,76.808 l0.00-59.077 l-19.692,0.00 l0.00,59.077 l-59.076,0.00 l0.00-59.077 L 334.27,17.731 l0.00,59.077 l-59.077,0.00 l0.00-59.077 
			L 255.50,17.731 l0.00,59.077 l-59.077,0.00 l0.00-59.077 l-19.692,0.00 l0.00,59.077 l-59.077,0.00 l0.00-59.077 L 97.961,17.731 l0.00,45.683 l 28.635,33.087l 50.135,0.00 l0.00,20.279 
			c 7.327,1.48, 13.942,4.711, 19.692,9.066L 196.423,96.50 L 255.50,96.50 l0.00,59.077 l-40.346,0.00 c 0.606,3.048, 0.961,6.202, 0.961,9.433
			c0.00,1.75-0.355,3.404-0.509,5.125l 11.615,5.135L 255.50,175.27 l0.00,12.50 l 19.692,8.712l0.00-21.212 l 59.077,0.00 l0.00,20.365 
			c 3.192-0.653, 6.461-1.087, 9.846-1.087s 6.654,0.356, 9.847,1.00l0.00-20.278 l 59.076,0.00 l0.00,59.077 l-20.653,0.00 c 0.605,3.048, 0.961,6.201, 0.961,9.433
			c0.00,3.548-0.49,6.952-1.221,10.26l 20.913,0.00 l0.00,59.076 l-3.308,0.00 l 23.00,34.856L 432.73,332.808 z M 334.27,155.577l-59.077,0.00 L 275.193,96.50 l 59.077,0.00 L 334.27,155.577 z
			 M 413.038,155.577l-59.076,0.00 L 353.962,96.50 l 59.076,0.00 L 413.038,155.577 z"  />
<glyph unicode="&#xe049;" d="M 511.50,279.17L 317.473,279.17 L 257.407,464.184l-0.643,0.00 L 196.358,279.17L-0.50,279.17 l 159.458-112.141L 99.073-15.143l-0.642-0.041
		l 157.892,114.398L 414.175-14.02l-59.804,181.933L 511.50,279.17z"  />
<glyph unicode="&#xe04a;" d="M 279.209,290.94L 70.57,290.94 l 56.901,37.934l 94.836,0.00 L 279.209,290.94z M 459.396,277.548c0.00,7.316-5.955,13.281-13.281,13.281
		c-7.316,0.00-13.271-5.964-13.271-13.281s 5.955-13.28, 13.271-13.28C 453.441,264.268, 459.396,270.232, 459.396,277.548z
		 M 421.462,296.516c0.00,7.316-5.955,13.281-13.28,13.281c-7.316,0.00-13.271-5.964-13.271-13.281s 5.955-13.281, 13.271-13.281
		C 415.507,283.235, 421.462,289.199, 421.462,296.516z M 459.396,315.482c0.00,7.316-5.955,13.281-13.281,13.281
		c-7.316,0.00-13.271-5.964-13.271-13.281s 5.955-13.28, 13.271-13.28C 453.441,302.202, 459.396,308.166, 459.396,315.482z
		 M 383.527,315.482c0.00,7.316-5.954,13.281-13.28,13.281c-7.316,0.00-13.271-5.964-13.271-13.281s 5.955-13.28, 13.271-13.28
		C 377.573,302.202, 383.527,308.166, 383.527,315.482z M 421.462,334.45c0.00,7.316-5.955,13.281-13.28,13.281
		c-7.316,0.00-13.271-5.964-13.271-13.281s 5.955-13.281, 13.271-13.281C 415.507,321.169, 421.462,327.133, 421.462,334.45z
		 M 345.594,334.45c0.00,7.316-5.955,13.281-13.281,13.281c-7.316,0.00-13.271-5.964-13.271-13.281s 5.954-13.281, 13.271-13.281
		C 339.639,321.169, 345.594,327.133, 345.594,334.45z M 459.396,353.417c0.00,7.316-5.955,13.28-13.281,13.28
		c-7.316,0.00-13.271-5.964-13.271-13.28s 5.955-13.281, 13.271-13.281C 453.441,340.136, 459.396,346.101, 459.396,353.417z
		 M 383.527,353.417c0.00,7.316-5.954,13.28-13.28,13.28c-7.316,0.00-13.271-5.964-13.271-13.28s 5.955-13.281, 13.271-13.281
		C 377.573,340.136, 383.527,346.101, 383.527,353.417z M 307.659,353.417c0.00,7.316-5.955,13.28-13.28,13.28
		c-7.316,0.00-13.271-5.964-13.271-13.28s 5.955-13.281, 13.271-13.281C 301.704,340.136, 307.659,346.101, 307.659,353.417z
		 M 421.462,372.384c0.00,7.316-5.955,13.281-13.28,13.281c-7.316,0.00-13.271-5.964-13.271-13.281s 5.955-13.281, 13.271-13.281
		C 415.507,359.103, 421.462,365.067, 421.462,372.384z M 345.594,372.384c0.00,7.316-5.955,13.281-13.281,13.281
		c-7.316,0.00-13.271-5.964-13.271-13.281s 5.954-13.281, 13.271-13.281C 339.639,359.103, 345.594,365.067, 345.594,372.384z
		 M 269.725,372.384c0.00,7.316-5.954,13.281-13.28,13.281c-7.316,0.00-13.271-5.964-13.271-13.281s 5.955-13.281, 13.271-13.281
		C 263.771,359.103, 269.725,365.067, 269.725,372.384z M 459.396,391.351c0.00,7.316-5.955,13.281-13.281,13.281
		c-7.316,0.00-13.271-5.964-13.271-13.281s 5.955-13.281, 13.271-13.281C 453.441,378.07, 459.396,384.035, 459.396,391.351z M 383.527,391.351
		c0.00,7.316-5.954,13.281-13.28,13.281c-7.316,0.00-13.271-5.964-13.271-13.281s 5.955-13.281, 13.271-13.281
		C 377.573,378.07, 383.527,384.035, 383.527,391.351z M 307.659,391.351c0.00,7.316-5.955,13.281-13.28,13.281
		c-7.316,0.00-13.271-5.964-13.271-13.281s 5.955-13.281, 13.271-13.281C 301.704,378.07, 307.659,384.035, 307.659,391.351z M 421.462,410.318
		c0.00,7.316-5.955,13.281-13.28,13.281c-7.316,0.00-13.271-5.964-13.271-13.281s 5.955-13.28, 13.271-13.28
		C 415.507,397.038, 421.462,403.001, 421.462,410.318z M 345.594,410.318c0.00,7.316-5.955,13.281-13.281,13.281
		c-7.316,0.00-13.271-5.964-13.271-13.281s 5.954-13.28, 13.271-13.28C 339.639,397.038, 345.594,403.001, 345.594,410.318z M 459.396,429.285
		c0.00,7.316-5.955,13.281-13.281,13.281c-7.316,0.00-13.271-5.964-13.271-13.281s 5.955-13.281, 13.271-13.281
		C 453.441,416.004, 459.396,421.969, 459.396,429.285z M 383.527,429.285c0.00,7.316-5.954,13.281-13.28,13.281
		c-7.316,0.00-13.271-5.964-13.271-13.281s 5.955-13.281, 13.271-13.281C 377.573,416.004, 383.527,421.969, 383.527,429.285z M 421.462,448.252
		c0.00,7.316-5.955,13.281-13.28,13.281c-7.316,0.00-13.271-5.964-13.271-13.281s 5.955-13.28, 13.271-13.28
		C 415.507,434.972, 421.462,440.936, 421.462,448.252z M 459.396,467.219c0.00,7.316-5.955,13.281-13.281,13.281
		c-7.316,0.00-13.271-5.964-13.271-13.281s 5.955-13.281, 13.271-13.281C 453.441,453.938, 459.396,459.903, 459.396,467.219z M 203.34,367.772
		c0.00,10.41-8.538,18.004-18.967,18.004l-18.967,0.00 c-10.429,0.00-18.967-7.594-18.967-18.004c0.00-0.667,0.00-19.931,0.00-19.931l 56.90,0.00 
		C 203.34,347.841, 203.34,367.105, 203.34,367.772z M 298.176,271.973l0.00-284.506 c0.00-10.428-8.539-18.967-18.967-18.967L 70.57-31.50 
		c-10.428,0.00-18.967,8.539-18.967,18.967L 51.603,271.973 L 298.176,271.973 z M 80.055,253.006L 70.57,253.006 L 70.57-3.05 l 9.484,0.00 L 80.054,253.006 z"  />
<glyph unicode="&#xe04c;" d="M 508.359,386.285L 417.295,477.371c-4.193,4.172-11.027,4.172-15.178,0.00l-15.198-15.178c-4.172-4.171-4.172-11.005,0.00-15.177
			l 22.787-22.808L 212.378,226.901l-15.177,15.178l-30.355-30.355l-60.71,60.71l-45.511-45.533
			C-45.66,120.659, 19.012-11.997, 19.012-11.997s 132.656-64.692, 238.919,41.57l 45.532,45.554l-60.731,60.71l 30.376,30.354
			l-15.177,15.178l 197.307,197.328l 22.787-22.808c 4.172-4.13, 11.006-4.13, 15.178,0.00l 15.178,15.177
			C 512.51,375.28, 512.51,382.114, 508.359,386.285z M 261.60,86.614l 11.488-11.487l-30.376-30.355
			c-81.841-81.819-180.369-51.15-207.37-40.438c-1.153,2.893-2.557,6.771-4.025,11.173c 36.938-12.032, 126.829-32.346, 199.906,40.732
			L 261.60,86.614z"  />
<glyph unicode="&#xe04d;" d="M 429.58,388.34l0.00-327.68 c0.00-5.641-4.60-10.24-10.24-10.24l-40.96,0.00 c-5.64,0.00-10.24,4.60-10.24,10.24L 368.14,337.14 L 92.52,337.14 
		c-5.64,0.00-11.10,4.60-11.10,10.24L 81.42,388.34 c0.00,5.64, 5.46,10.24, 11.10,10.24l 326.82,0.00 C 424.98,398.58, 429.58,393.98, 429.58,388.34z M 9.74,316.66
		c-5.64,0.00-10.24-4.60-10.24-10.24l0.00-327.68 c0.00-5.641, 4.60-10.24, 10.24-10.24l 327.68,0.00 c 5.64,0.00, 10.24,4.60, 10.24,10.24L 347.66,316.66 L 9.74,316.66 z
		 M 501.26,480.50L 174.44,480.50 c-5.641,0.00-11.101-4.60-11.101-10.24L 163.339,429.30 c0.00-5.64, 5.46-10.24, 11.101-10.24L 450.06,419.06 l0.00-276.48 
		c0.00-5.64, 4.601-10.24, 10.24-10.24l 40.96,0.00 c 5.641,0.00, 10.24,4.601, 10.24,10.24L 511.50,470.26 C 511.50,475.90, 506.90,480.50, 501.26,480.50z"  />
<glyph unicode="&#xe04e;" d="M 255.479,480.49C 114.375,480.49-0.50,365.657-0.50,224.469c0.00-141.125, 114.833-255.959, 255.979-255.959
		c 141.167,0.00, 256.021,114.834, 256.021,255.98C 511.479,365.677, 396.626,480.49, 255.479,480.49z M 425.759,96.24l-19.284,40.104
		l-62.518-20.923l-22.912-61.915l 33.84-17.791c-29.714-15.697-63.491-24.676-99.405-24.676c-38.05,0.00-73.715,10.16-104.673,27.619
		l 28.20,14.848l-22.913,61.915l-62.518,20.923l-15.012-31.229c-23.10,34.11-36.598,75.208-36.598,119.395
		c0.00,12.42, 1.286,24.53, 3.338,36.391l 23.597-27.62l 57.956,44.084l-2.716,72.408l-40.746,0.643
		c 25.671,34.981, 61.667,61.896, 103.574,76.141l-13.499-23.597l 80.785-33.529l 80.785,33.114l-14.308,25.214
		c 43.255-13.914, 80.392-41.326, 106.726-77.26l-43.088-0.684l-2.717-72.408l 57.936-44.084l 25.629,29.963
		c 2.322-12.586, 3.732-25.442, 3.732-38.713C 468.992,176.342, 452.777,132.01, 425.759,96.24zM 173.512,252.068L 204.366,159.629L 304.229,159.629L 335.083,252.71L 254.298,309.505 	z"  />
<glyph unicode="&#xe04f;" d="M 493.767,242.828l-29.067,0.00 l 17.29,17.299c 16.718,16.717-9.199,42.652-25.917,25.917l-43.207-43.216l-54.932,0.00 l-19.42,38.787
		l 34.545,34.526l 65.724,0.00 c 23.645,0.00, 23.645,36.656,0.00,36.656l-29.067,0.00 l 27.242,27.215c 16.717,16.717-9.20,42.652-25.918,25.917
		l-27.241-27.215L 383.799,407.782 c0.00,23.644-36.656,23.644-36.656,0.00l0.00-65.724 l-34.527-34.536l-38.786,19.411L 273.83,381.865 l 43.207,43.216
		c 16.718,16.718-9.199,42.635-25.917,25.917L 273.828,433.70L 273.828,462.767 c0.00,23.644-36.656,23.644-36.656,0.00L 237.172,433.70 l-17.281,17.299
		c-16.717,16.717-42.635-9.20-25.917-25.917l 43.199-43.216l0.00-54.931 l-38.769-19.429l-34.544,34.554L 163.86,407.782 
		c0.00,23.644-36.656,23.644-36.656,0.00l0.00-29.067 L 99.987,405.93C 83.27,422.647, 57.353,396.73, 74.07,380.013l 27.215-27.215L 72.218,352.798 
		c-23.644,0.00-23.644-36.656,0.00-36.656l 65.724,0.00 l 34.554-34.526l-19.411-38.787L 98.135,242.829 l-43.198,43.216
		c-16.735,16.735-42.635-9.20-25.917-25.917L 46.30,242.828L 17.233,242.828 c-23.644,0.00-23.644-36.656,0.00-36.656L 46.30,206.172 l-17.281-17.29
		c-16.718-16.718, 9.20-42.635, 25.917-25.917l 43.198,43.207l 54.949,0.00 l 19.411-38.786l-34.554-34.527L 72.218,132.859 
		c-23.644,0.00-23.644-36.656,0.00-36.656l 29.067,0.00 l-27.197-27.206c-16.718-16.717, 9.20-42.634, 25.917-25.917l 27.197,27.206l0.00-29.067 
		c0.00-23.645, 36.656-23.645, 36.656,0.00l0.00,65.724 l 34.544,34.545l 38.769-19.402l0.00-54.949 l-43.199-43.207
		c-16.717-16.718, 9.20-42.635, 25.917-25.917l 17.281,17.29l0.00-29.067 c0.00-23.645, 36.656-23.645, 36.656,0.00l0.00,29.067 l 17.29-17.29
		c 16.718-16.718, 42.635,9.199, 25.917,25.917l-43.207,43.207l0.00,54.949 l 38.769,19.402l 34.545-34.545l0.00-65.724 
		c0.00-23.645, 36.656-23.645, 36.656,0.00l0.00,29.067 l 27.206-27.206c 16.717-16.717, 42.634,9.20, 25.917,25.917l-27.206,27.206l 29.067,0.00 
		c 23.645,0.00, 23.645,36.656,0.00,36.656l-65.724,0.00 l-34.545,34.545l 19.402,38.769l 54.949,0.00 l 43.207-43.207
		c 16.682-16.718, 42.635,9.199, 25.917,25.917l-17.29,17.29l 29.067,0.00 C 517.411,206.172, 517.411,242.828, 493.767,242.828z
		 M 302.573,177.462l-47.073-23.59l-47.064,23.555L 184.881,224.50l 23.537,47.046l 47.064,23.555l 47.056-23.519l 23.555-47.064
		L 302.573,177.462z"  />
<glyph unicode="&#xe050;" d="M 502.037,386.479l-28.445,0.00 c0.00,38.946-53.909,47.279-82.513,53.78C 348.189,450.00, 303.567,459.815, 259.436,460.704
		C 214.98,461.593, 169.488,451.00, 126.366,441.333c-32.047-7.13-88.938-11.704-88.938-54.854L 8.982,386.479 c-5.213,0.00-9.482-4.26-9.482-9.482l0.00-94.411 
		c0.00-5.223, 4.269-9.482, 9.482-9.482l 28.445,0.00 c0.00-20.167, 15.686-37.687, 35.705-39.909l 131.042-15.186
		c 4.195-0.426, 8.25-0.167, 12.343,0.667c 2.222-1.648, 4.954-2.871, 8.574-2.871l 56.891,0.00 c 3.621,0.00, 6.334,1.186, 8.575,2.871
		c 4.111-0.834, 8.167-1.13, 12.343-0.667l 134.968,14.741c 20.02,2.223, 35.705,19.779, 35.705,39.909l 28.445,0.00 
		c 5.213,0.00, 9.481,4.259, 9.481,9.481L 511.499,376.96 C 511.519,382.22, 507.25,386.479, 502.037,386.479z M 454.628,272.697
		c0.00-10.426-8.473-19.908-18.853-21.056L 300.854,236.90c-10.38-1.185-19.593,24.927-22.89,34.853l-6.963,20.927
		c-3.047,9.13-1.25,31.612-15.473,31.612c-14.223,0.00-12.436-22.482-15.473-31.612l-6.963-20.927
		c-3.296-9.889-16.436-36.001-26.816-34.853L 75.281,252.085c-10.371,1.167-18.853,10.649-18.853,21.038l0.00,9.482 l0.00,94.411 l0.00,9.482 
		c0.00,10.426, 8.00,18.871, 18.223,20.945c 25.714,5.093, 51.493,9.926, 77.299,14.612c 33.566,6.093, 69.29,15.427, 103.597,15.427
		c 32.826,0.00, 67.021-8.871, 99.162-14.649c 27.047-4.908, 54.048-10.019, 80.993-15.39c 10.223-2.055, 18.964-10.537, 18.964-20.945l0.00-9.482 
		l0.00-94.818 l0.00-9.50 L 454.628,272.698 zM 228.277,394.85c-0.185,0.00-0.38,0.00-0.565,0.00L 90.753,380.072c-7.926-0.889-14.621-8.371-14.621-16.353l0.00-58.335 
		c0.00-8.056, 6.732-15.815, 14.695-16.963l 99.161-13.612c 8.065-1.074, 16.50,4.315, 18.76,12.186l 27.473,97.708
		C 238.101,391.128, 234.685,394.85, 228.277,394.85zM 420.646,380.072L 281.732,394.924c-6.046,0.00-8.546-4.704-6.954-10.223l 27.474-97.708c 2.278-7.908, 10.695-13.204, 18.778-12.167
		l 99.541,13.593c 7.963,1.167, 14.695,8.908, 14.695,16.982l0.00,58.317 C 435.267,371.701, 428.571,379.183, 420.646,380.072zM 151.209,45.134l 227.564,0.00 l0.00-56.891 L 151.209-11.757 L 151.209,45.134 z M 397.737,45.134l0.00-56.891 l 75.854,0.00 l0.00,56.891 L 397.737,45.134 z M 170.173,107.044
		c0.00,12.723-5.352,9.537-14.056,12.26c-8.186,2.556-7.148,22.445, 2.222,23.111c 17.603,1.26, 11.834,21.724, 11.834,35.483l-23.705,0.00 
		c-10.426,0.00-14.223-18.964-14.223-18.964c-49.511,0.00-99.559-31.409-99.559-85.337s 50.048-85.336, 99.559-85.336l0.00,56.891 
		c-23.195,0.00-42.668,0.426-42.668,28.445s 19.473,28.445, 42.668,28.445c0.00,0.00, 3.796-18.963, 14.223-18.963l 23.705,0.00 
		C 170.173,83.062, 170.173,83.432, 170.173,107.044z"  />
<glyph unicode="&#xe051;" d="M 427.183,256.406l-66.948,66.967l 84.282,84.282l 66.985-66.967L 427.183,256.406z M 85.005,48.143
		c-33.261-38.423, 28.526-100.228, 66.967-66.967L 85.005,48.143z M 409.183,238.388l-66.967,66.948L 103.874,66.975l 66.968-66.93
		L 409.183,238.388z M 71.667,92.022c 8.417,1.406-9.786,30.782-19.85,57.125c-21.977,57.569, 21.681,80.546-11.284,144.775
		C 28.472,317.36, 15.448,337.58, 7.05,335.36c-6.382-1.665, 11.765-45.008, 3.292-76.586c-21.052-78.529-11.913-105.889, 31.449-149.695
		C 45.62,105.157, 63.231,90.616, 71.667,92.022z M 25.031,381.904c 9.139-41.974, 32.559-47.913, 43.51-85.706
		c 10.952-37.794-0.333-82.34, 5.291-82.488c 9.656-0.259, 31.171,35.907, 26.38,93.901c-3.182,38.663-21.496,54.869-35.075,90.775
		C 51.596,434.312, 55.48,482.761, 48.173,476.823C 40.885,470.848, 15.892,423.86, 25.031,381.904z"  />
<glyph unicode="&#xe053;" d="M 255.50,480.50C 18.542,480.50, 41.00,288.50, 41.00,288.50l 22.50-42.667l 21.333-106.667l 74.667-21.332l 24.917-42.668l 142.167,0.00 l 24.917,42.668
		l 74.667,21.332L 447.50,245.833L 470.00,288.50C 470.00,288.50, 492.458,480.50, 255.50,480.50z M 176.563,181.834l-21.333,0.00 
		c-15.25,0.00-27.729,12.479-27.729,27.729l0.00,29.875 c0.00,15.25, 12.479,27.729, 27.729,27.729l 51.208,0.00 c 15.25,0.00, 23.604-11.792, 18.563-26.167
		l-11.542-33.00C 208.417,193.625, 191.833,181.834, 176.563,181.834z M 276.833,117.834l-42.666,0.00 c-11.729,0.00-16.00,8.00-9.50,17.75l 19.00,28.50
		c 6.521,9.75, 17.188,9.75, 23.666,0.00l 19.00-28.50C 292.833,125.834, 288.563,117.834, 276.833,117.834z M 383.50,209.562
		c0.00-15.25-12.479-27.729-27.729-27.729l-21.333,0.00 c-15.271,0.00-31.854,11.791-36.896,26.166L 286.00,241.042
		c-5.042,14.375, 3.313,26.167, 18.563,26.167l 51.208,0.00 c 15.25,0.00, 27.729-12.479, 27.729-27.729L 383.50,209.562 zM 319.50,32.50L 191.50,32.50L 127.50,96.50L 106.167,96.50L 148.833-10.167L 170.167-10.167L 191.50-31.50L 319.50-31.50L 340.833-10.167L 362.167-10.167L 404.833,96.50L 383.50,96.50 	z"  />
<glyph unicode="&#xe055;" d="M 74.167,117.833l-64.00,0.00 c-5.875,0.00-10.667-4.791-10.667-10.666c0.00-46.229,0.00-92.438,0.00-138.667l 85.333,0.00 c0.00,46.229,0.00,92.438,0.00,138.667
		C 84.833,113.042, 80.042,117.833, 74.167,117.833zM 180.833,181.834l-64.00,0.00 c-5.875,0.00-10.667-4.793-10.667-10.668c0.00-67.562,0.00-135.104,0.00-202.666L 191.50-31.50 
		c0.00,67.563,0.00,135.104,0.00,202.666C 191.50,177.041, 186.708,181.834, 180.833,181.834zM 287.50,245.833l-64.00,0.00 c-5.875,0.00-10.667-4.792-10.667-10.667c0.00-88.896,0.00-177.771,0.00-266.667l 85.333,0.00 
		c0.00,88.896,0.00,177.771,0.00,266.667C 298.166,241.042, 293.375,245.833, 287.50,245.833zM 394.167,352.50l-64.001,0.00 c-5.875,0.00-10.666-4.792-10.666-10.667c0.00-124.437,0.00-248.896,0.00-373.333l 85.333,0.00 
		c0.00,124.438,0.00,248.896,0.00,373.333C 404.833,347.708, 400.042,352.50, 394.167,352.50zM 500.833,480.50l-64.00,0.00 c-5.875,0.00-10.666-4.802-10.666-10.667c0.00-167.104,0.00-334.229,0.00-501.333L 511.50-31.50 c0.00,167.104,0.00,334.229,0.00,501.333
		C 511.50,475.698, 506.708,480.50, 500.833,480.50z"  />
<glyph unicode="&#xe056;" d="M 383.50-31.50c-6.409,0.00-11.637,5.228-11.637,11.637L 371.863,96.50 c0.00,6.409, 5.228,11.637, 11.637,11.637l 116.363,0.00 
		c 6.409,0.00, 11.637-5.228, 11.637-11.637l0.00-116.363 c0.00-6.409-5.228-11.637-11.637-11.637L 383.50-31.50 z M 197.318-31.50
		c-6.409,0.00-11.637,5.228-11.637,11.637L 185.681,96.50 c0.00,6.409, 5.228,11.637, 11.637,11.637l 116.363,0.00 c 6.409,0.00, 11.637-5.228, 11.637-11.637
		l0.00-116.363 c0.00-6.409-5.228-11.637-11.637-11.637L 197.318-31.50 z M 11.136-31.50c-6.409,0.00-11.636,5.228-11.636,11.637L-0.50,96.50 
		c0.00,6.409, 5.227,11.637, 11.636,11.637L 127.50,108.137 c 6.409,0.00, 11.636-5.228, 11.636-11.637l0.00-116.363 c0.00-6.409-5.227-11.637-11.636-11.637L 11.136-31.50 
		z M 383.50,154.682c-6.409,0.00-11.637,5.228-11.637,11.637L 371.863,282.682 c0.00,6.409, 5.228,11.637, 11.637,11.637l 116.363,0.00 
		c 6.409,0.00, 11.637-5.228, 11.637-11.637l0.00-116.363 c0.00-6.409-5.228-11.637-11.637-11.637L 383.50,154.682 z M 197.318,154.682
		c-6.409,0.00-11.637,5.228-11.637,11.637L 185.681,282.682 c0.00,6.409, 5.228,11.637, 11.637,11.637l 116.363,0.00 c 6.409,0.00, 11.637-5.228, 11.637-11.637
		l0.00-116.363 c0.00-6.409-5.228-11.637-11.637-11.637L 197.318,154.682 z M 11.136,154.682c-6.409,0.00-11.636,5.228-11.636,11.637L-0.50,282.682 
		c0.00,6.409, 5.227,11.637, 11.636,11.637L 127.50,294.319 c 6.409,0.00, 11.636-5.228, 11.636-11.637l0.00-116.363 c0.00-6.409-5.227-11.637-11.636-11.637L 11.136,154.682 
		z M 383.50,340.864c-6.409,0.00-11.637,5.227-11.637,11.636L 371.863,468.864 c0.00,6.409, 5.228,11.636, 11.637,11.636l 116.363,0.00 
		c 6.409,0.00, 11.637-5.228, 11.637-11.636L 511.50,352.50 c0.00-6.409-5.228-11.636-11.637-11.636L 383.50,340.864 z M 197.318,340.864
		c-6.409,0.00-11.637,5.227-11.637,11.636L 185.681,468.864 c0.00,6.409, 5.228,11.636, 11.637,11.636l 116.363,0.00 c 6.409,0.00, 11.637-5.228, 11.637-11.636
		L 325.318,352.50 c0.00-6.409-5.228-11.636-11.637-11.636L 197.318,340.864 z M 11.136,340.864c-6.409,0.00-11.636,5.227-11.636,11.636L-0.50,468.864 
		C-0.50,475.272, 4.727,480.50, 11.136,480.50L 127.50,480.50 c 6.409,0.00, 11.636-5.228, 11.636-11.636L 139.136,352.50 c0.00-6.409-5.227-11.636-11.636-11.636L 11.136,340.864 z"  />
<glyph unicode="&#xe059;" d="M 290.409-31.50c-6.409,0.00-11.637,5.228-11.637,11.637L 278.772,189.591 c0.00,6.409, 5.228,11.637, 11.637,11.637l 209.454,0.00 
		c 6.409,0.00, 11.637-5.228, 11.637-11.637l0.00-209.454 c0.00-6.409-5.228-11.637-11.637-11.637L 290.409-31.50 z M 220.591-31.50
		c 6.409,0.00, 11.636,5.228, 11.636,11.637L 232.227,189.591 c0.00,6.409-5.227,11.637-11.636,11.637L 11.136,201.228 C 4.727,201.228-0.50,196.00-0.50,189.591
		l0.00-209.454 c0.00-6.409, 5.227-11.637, 11.636-11.637L 220.591-31.50 z M 499.863,247.773c 6.409,0.00, 11.637,5.227, 11.637,11.636L 511.50,468.864 
		c0.00,6.409-5.228,11.636-11.637,11.636L 290.409,480.50 c-6.409,0.00-11.637-5.227-11.637-11.636l0.00-209.455 c0.00-6.409, 5.228-11.636, 11.637-11.636
		L 499.863,247.773 z M 220.591,247.773c 6.409,0.00, 11.636,5.227, 11.636,11.636L 232.227,468.864 C 232.227,475.273, 227.00,480.50, 220.591,480.50L 11.136,480.50 
		C 4.727,480.50-0.50,475.273-0.50,468.864l0.00-209.455 c0.00-6.409, 5.227-11.636, 11.636-11.636L 220.591,247.773 z"  />
<glyph unicode="&#xe05a;" d="M 491.422,455.403l-50.197,0.00 c-9.294,0.00-17.392-6.392-19.529-15.451l-15.392-64.863L 19.575,375.089 c-6.088,0.00-11.843-2.765-15.657-7.51
		c-3.794-4.765-5.265-10.98-3.941-16.922l 40.157-180.707c 2.049-9.197, 10.206-15.727, 19.618-15.727l 294.277,0.00 l-19.02-80.314L 89.85,73.909 
		c-11.108,0.00-20.079-8.98-20.079-20.078c0.00-11.099, 8.971-20.079, 20.079-20.079l 21.921,0.00 c-1.118-3.156-1.843-6.51-1.843-10.039
		c0.00-16.627, 13.49-30.117, 30.118-30.117s 30.118,13.49, 30.118,30.117c0.00,3.529-0.725,6.883-1.843,10.039L 272.40,33.752 
		c-1.118-3.156-1.843-6.51-1.843-10.039c0.00-16.627, 13.49-30.117, 30.117-30.117c 16.628,0.00, 30.118,13.49, 30.118,30.117
		c0.00,3.529-0.726,6.883-1.843,10.039l 21.921,0.00 c 9.50,0.00, 17.412,10.04, 19.49,20.079l 0.04,0.00 l 86.706,361.415l 34.314,0.00 
		c 11.098,0.00, 20.078,8.98, 20.078,20.079C 511.50,446.423, 502.52,455.403, 491.422,455.403z M 69.771,234.539l-2.873,0.00 l-4.461,20.079l 7.333,0.00 
		L 69.77,234.539 z M 69.771,274.696L 57.987,274.696 l-4.46,20.079l 16.245,0.00 L 69.772,274.696 z M 69.771,314.854L 49.065,314.854 l-4.471,20.079l 25.177,0.00 L 69.771,314.854 z
		 M 109.929,194.382L 89.85,194.382 l0.00,20.079 l 20.079,0.00 L 109.929,194.382 z M 109.929,234.539L 89.85,234.539 l0.00,20.079 l 20.079,0.00 L 109.929,234.539 z M 109.929,274.696L 89.85,274.696 l0.00,20.079 
		l 20.079,0.00 L 109.929,274.696 z M 109.929,314.854L 89.85,314.854 l0.00,20.079 l 20.079,0.00 L 109.929,314.854 z M 150.085,194.382l-20.078,0.00 l0.00,20.079 l 20.078,0.00 L 150.085,194.382 z
		 M 150.085,234.539l-20.078,0.00 l0.00,20.079 l 20.078,0.00 L 150.085,234.539 z M 150.085,274.696l-20.078,0.00 l0.00,20.079 l 20.078,0.00 L 150.085,274.696 z M 150.085,314.854l-20.078,0.00 
		l0.00,20.079 l 20.078,0.00 L 150.085,314.854 z M 190.243,194.382l-20.079,0.00 l0.00,20.079 l 20.079,0.00 L 190.243,194.382 z M 190.243,234.539l-20.079,0.00 l0.00,20.079 l 20.079,0.00 L 190.243,234.539 z
		 M 190.243,274.696l-20.079,0.00 l0.00,20.079 l 20.079,0.00 L 190.243,274.696 z M 190.243,314.854l-20.079,0.00 l0.00,20.079 l 20.079,0.00 L 190.243,314.854 z M 230.40,194.382l-20.079,0.00 
		l0.00,20.079 L 230.40,214.461 L 230.40,194.382 z M 230.40,234.539l-20.079,0.00 l0.00,20.079 L 230.40,254.618 L 230.40,234.539 z M 230.40,274.696l-20.079,0.00 l0.00,20.079 L 230.40,294.775 L 230.40,274.696 z
		 M 230.40,314.854l-20.079,0.00 l0.00,20.079 L 230.40,334.933 L 230.40,314.854 z M 270.558,194.382l-20.079,0.00 l0.00,20.079 l 20.079,0.00 L 270.558,194.382 z M 270.558,234.539l-20.079,0.00 
		l0.00,20.079 l 20.079,0.00 L 270.558,234.539 z M 270.558,274.696l-20.079,0.00 l0.00,20.079 l 20.079,0.00 L 270.558,274.696 z M 270.558,314.854l-20.079,0.00 l0.00,20.079 l 20.079,0.00 L 270.558,314.854 z
		 M 310.714,194.382l-20.078,0.00 l0.00,20.079 l 20.078,0.00 L 310.714,194.382 z M 310.714,234.539l-20.078,0.00 l0.00,20.079 l 20.078,0.00 L 310.714,234.539 z M 310.714,274.696l-20.078,0.00 
		l0.00,20.079 l 20.078,0.00 L 310.714,274.696 z M 310.714,314.854l-20.078,0.00 l0.00,20.079 l 20.078,0.00 L 310.714,314.854 z M 350.871,194.382l-20.078,0.00 l0.00,20.079 l 20.078,0.00 L 350.871,194.382 z
		 M 350.871,234.539l-20.078,0.00 l0.00,20.079 l 20.078,0.00 L 350.871,234.539 z M 350.871,274.696l-20.078,0.00 l0.00,20.079 l 20.078,0.00 L 350.871,274.696 z M 350.871,314.854l-20.078,0.00 
		l0.00,20.079 l 20.078,0.00 L 350.871,314.854 z M 373.028,234.539l-2.078,0.00 l0.00,20.079 l 6.843,0.00 L 373.028,234.539z M 382.558,274.696L 370.95,274.696 l0.00,20.079 l 16.235,0.00 
		L 382.558,274.696z M 391.656,314.854L 370.95,314.854 l0.00,20.079 l 25.177,0.00 L 391.656,314.854z"  />
<glyph unicode="&#xe05b;" d="M 417.488,388.49l0.00,20.00 c0.00,39.706-32.304,72.01-71.99,72.01l-59.999,0.00 c-19.218,0.00-36.62-7.676-49.53-19.999
		l-30.468,0.00 c-39.687,0.00-71.99-32.266-71.99-72.011l-28.008,0.00 l-79.998-79.998L 25.505-31.50 l 379.991,0.00 l 79.999,79.998L 485.495,388.49 L 417.488,388.49 z M 393.505,408.49
		l0.00-20.00 L 337.49,388.49 c0.00,31.719-20.741,58.417-49.257,67.987l 57.265,0.00 C 371.981,456.478, 393.505,434.954, 393.505,408.49z M 157.494,308.492l0.00,39.999 
		l 156.013,0.00 l0.00-39.999 L 157.494,308.492 z M 237.492,388.49l0.00,20.00 c0.00,10.469, 3.477,20.097, 9.18,27.987L 265.50,436.477 c 26.483,0.00, 48.007-21.522, 48.007-47.987
		L 237.492,388.49 z M 205.501,436.478l 13.672,0.00 c-3.633-8.652-5.664-18.065-5.664-27.987l0.00-20.00 l-56.015,0.00 
		C 157.494,414.955, 179.018,436.478, 205.501,436.478z M 85.504,308.512l 39.999,39.979l 8.008,0.00 l0.00-39.999 L 85.504,308.512L 85.504,308.512z
		 M 395.497,308.492L 337.49,308.492 l0.00,39.999 l 98.006,0.00 L 395.497,308.492z"  />
<glyph unicode="&#xe05c;" d="M 255.50,480.50c-149.334,0.00-234.667-64.00-234.667-64.00l0.00-85.333 C 31.041,29.75, 255.50-31.50, 255.50-31.50s 224.458,61.25, 234.667,362.667
		L 490.167,416.50 C 490.167,416.50, 404.833,480.50, 255.50,480.50z M 255.50,36.792L 255.50,245.833 L 96.083,245.833 c-5.958,25.875-10.083,54.354-11.25,86.458l0.00,47.625 
		c 30.229,14.792, 85.334,36.583, 128.00,36.583c 2.084,0.00, 40.542,0.00, 42.667,0.00l0.00-170.667 l 156.667,0.333l 2.75-0.333
		C 383.167,107.937, 293.771,53.834, 255.50,36.792z"  />
<glyph unicode="&#xe05d;" d="M 455.77,151.875c-6.993,0.00-13.446-2.042-18.938-5.414l-44.095,72.145l 43.248,66.634c 5.683-3.699, 12.464-5.895, 19.784-5.895
		c 20.111,0.00, 36.408,16.297, 36.408,36.409c0.00,20.15-16.297,39.876-36.408,39.876c-20.15,0.00-36.468-13.215-36.468-32.941l-85.917,0.00 
		l-58.967,93.045c 10.44,6.396, 17.453,16.085, 17.453,29.224c0.00,20.111-16.298,35.542-36.409,35.542
		c-20.112,0.00-36.409-16.721-36.409-36.813c0.00-13.177, 6.993-21.364, 17.511-27.76l-58.948-93.238L 91.621,322.689 
		c0.00,19.726-16.316,32.941-36.467,32.941c-20.112,0.00-36.409-18.05-36.409-38.181s 16.297-37.276, 36.409-37.276
		c 7.339,0.00, 14.159,1.772, 19.861,5.509l 43.247-66.903l-44.114-72.318c-5.51,3.41-11.982,5.375-18.994,5.375
		c-20.112,0.00-36.409-16.297-36.409-36.409c0.00-20.15, 16.297-41.321, 36.409-41.321c 20.15,0.00, 36.467,11.79, 36.467,31.516l 93.508,0.00 
		l 50.934-73.627c-10.19-6.473-16.972-15.314-16.972-28.299c0.00-20.15, 16.278-35.195, 36.409-35.195
		c 20.15,0.00, 36.409,16.914, 36.409,37.045c0.00,12.945-6.781,19.669-16.914,26.142l 50.935,73.935l 93.449,0.00 
		c0.00-19.726, 16.317-31.593, 36.467-31.593c 20.112,0.00, 36.409,18.782, 36.409,38.933C 492.217,133.111, 475.881,151.875, 455.77,151.875z
		 M 345.021,164.878l-59.045,0.00 L 255.50,120.493l-0.038-1.271l-30.438,45.656L 165.98,164.878 l 28.626,50.664L 165.98,263.51l 55.615,0.00 l 33.866,54.209
		l 0.038,0.655l 33.886-54.864l 55.635,0.00 l-28.646-47.968L 345.021,164.878z"  />
<glyph unicode="&#xe05e;" d="M 507.776,218.063L 267.608,40.145c-4.986-3.69-9.05-1.625-9.05,4.568l-0.132,112.507
		C 190.576,157.746, 43.09,159.592-0.50,55.894c 3.13,213.744, 208.374,242.914, 258.772,246.868l-0.109,101.567
		c0.00,6.15, 4.086,8.215, 9.05,4.525l 240.563-177.436C 512.741,227.75, 512.741,221.753, 507.776,218.063z"  />
<glyph unicode="&#xe05f;" d="M 428.704,131.455c-21.043,0.00-40.04-8.181-54.492-21.293l-149.208,88.012c 2.00,8.499, 3.363,17.225, 3.363,26.36
		c0.00,9.407-1.432,18.406-3.568,27.155l 148.776,87.738c 14.544-13.385, 33.813-21.815, 55.175-21.815
		c 44.994,0.00, 81.443,36.45, 81.443,81.443c0.00,44.994-36.449,81.444-81.443,81.444s-81.444-36.45-81.444-81.444
		c0.00-6.771, 1.068-13.248, 2.637-19.542l-145.526-85.83c-20.861,26.951-53.084,44.631-89.806,44.631
		c-62.855,0.00-113.803-50.902-113.803-113.804c0.00-62.90, 50.902-113.803, 113.803-113.803c 36.995,0.00, 69.536,17.93, 90.329,45.222
		l 145.23-85.648c-1.682-6.544-2.863-13.271-2.863-20.338c0.00-45.017, 36.45-81.443, 81.444-81.443s 81.443,36.427, 81.443,81.443
		C 510.193,94.937, 473.698,131.455, 428.704,131.455z"  />
<glyph unicode="&#xe060;" d="M 342.525,189.048l 138.611-126.931c 4.47-4.027, 4.607-10.711, 0.433-14.949l-75.652-75.609
		c-4.207-4.218-10.965-4.049-14.96,0.358L 266.42,109.242L 342.525,189.048z M 70.932,325.656c 5.988,0.274, 14.338-2.973, 18.597-7.127
		l 64.709-63.823l 41.411,38.796l-65.985,65.089c-4.249,4.175-7.517,12.461-7.253,18.449l 0.496,11.175
		c 0.264,5.988-3.584,13.536-8.592,16.762L 53.00,444.722c-4.976,3.268-12.524,2.467-16.741-1.75L 5.211,411.914
		C 1.004,407.739, 0.203,400.127, 3.44,395.172l 39.555-61.378c 3.247-4.997, 10.795-8.877, 16.783-8.603L 70.932,325.656z M 509.19,357.852
		l-104.244-52.501l-60.049,96.252l 107.416,57.372c-41.727,29.708-86.427,26.483-127.057,3.627
		c-53.292-30.046-76.78-92.035-58.553-147.741L 18.02,66.145c-8.402-8.392-8.402-22.118,0.00-30.531l 45.817-45.796
		c 8.392-8.392, 22.128-8.392, 30.531,0.00l 30.541,30.531l 216.752,216.772c 33.124-11.808, 71.276-9.235, 104.96,9.678
		C 487.23,269.675, 512.922,306.679, 509.19,357.852z"  />
<glyph unicode="&#xe061;" d="M 171.297,480.50l 173.032,0.00 c0.00-40.259-27.648-73.801-64.887-83.453l0.00-97.014 l-43.259-22.981L 236.183,397.047 
		C 198.945,406.699, 171.297,440.241, 171.297,480.50z M 406.111,340.545L 0.63,115.553l 8.66-15.842l 175.462-74.351l 302.447,174.617
		L 406.111,340.545z M 495.331,185.635L 194.003,10.279l 15.103-25.685L 510.37,159.908L 495.331,185.635z M 1.982,43.42L 45.24-31.50
		l 91.247,47.313L 35.376,61.078L 1.982,43.42z"  />
<glyph unicode="&#xe062;" d="M 508.273,33.658L 380.181,161.771c 20.835,32.273, 33.157,70.601, 33.157,111.833c0.00,114.089-92.872,206.897-206.94,206.897
		C 92.287,480.502-0.50,387.694-0.50,273.605c0.00-114.10, 92.787-206.908, 206.897-206.908c 41.20,0.00, 79.528,12.247, 111.834,33.093
		l 128.092-128.093c 4.257-4.267, 11.301-4.267, 15.515,0.00l 46.457,46.468C 512.572,22.41, 512.572,29.38, 508.273,33.658z
		 M 65.195,273.605c0.00,77.826, 63.334,141.191, 141.202,141.191s 141.181-63.344, 141.181-141.191
		c0.00-77.858-63.291-141.191-141.181-141.191C 128.529,132.393, 65.195,195.747, 65.195,273.605z"  />
<glyph unicode="&#xe063;" d="M 420.646,370.59L 281.732,385.443c-6.046,0.00-8.546-4.704-6.954-10.223l 27.474-97.708c 2.277-7.908, 10.694-13.204, 18.778-12.167
		l 99.541,13.593c 7.963,1.167, 14.695,8.908, 14.695,16.982l0.00,58.317 C 435.267,362.22, 428.571,369.701, 420.646,370.59zM 228.277,385.369c-0.185,0.00-0.38,0.00-0.565,0.00L 90.753,370.59c-7.926-0.889-14.621-8.371-14.621-16.353l0.00-58.335 
		c0.00-8.056, 6.732-15.815, 14.695-16.963l 99.161-13.612c 8.065-1.074, 16.50,4.315, 18.76,12.186l 27.473,97.708
		C 238.101,381.646, 234.685,385.369, 228.277,385.369zM 502.037,376.998l-28.445,0.00 c0.00,38.946-53.909,47.279-82.513,53.78c-42.89,9.741-87.513,19.556-131.644,20.445
		c-44.456,0.889-89.948-9.704-133.07-19.371c-32.029-7.148-88.938-11.686-88.938-54.872L 8.982,376.98 c-5.213,0.00-9.482-4.26-9.482-9.482
		l0.00-94.429 c0.00-5.186, 4.269-9.482, 9.482-9.482l 28.445,0.00 c0.00-20.13, 15.686-37.649, 35.705-39.89l 131.042-15.187
		c 4.194-0.426, 8.25-0.185, 12.343,0.667c 2.222-1.667, 4.954-2.87, 8.574-2.87l 56.891,0.00 c 3.621,0.00, 6.334,1.203, 8.574,2.87
		c 4.111-0.833, 8.167-1.13, 12.344-0.667l 134.968,14.778c 20.02,2.186, 35.705,19.742, 35.705,39.891l 28.445,0.00 
		c 5.213,0.00, 9.481,4.259, 9.481,9.481l0.00,94.818 C 511.519,372.738, 507.25,376.998, 502.037,376.998z M 454.628,263.216
		c0.00-10.426-8.473-19.908-18.853-21.056l-134.922-14.741c-10.38-1.185-19.593,24.927-22.89,34.853l-6.963,20.927
		c-3.047,9.13-1.25,31.612-15.473,31.612c-14.223,0.00-12.436-22.482-15.473-31.612l-6.963-20.927
		c-3.296-9.889-16.436-36.001-26.816-34.853L 75.281,242.604c-10.371,1.167-18.853,10.648-18.853,21.038l0.00,9.481 l0.00,94.411 l0.00,9.482 
		c0.00,10.426, 8.00,18.871, 18.223,20.945c 25.714,5.093, 51.493,9.926, 77.299,14.612C 185.516,418.666, 221.24,428.00, 255.546,428.00
		c 32.826,0.00, 67.021-8.871, 99.162-14.648c 27.047-4.908, 54.048-10.019, 80.993-15.39c 10.223-2.056, 18.964-10.537, 18.964-20.945l0.00-9.482 
		l0.00-94.818 l0.00-9.50 L 454.628,263.217 zM 378.773,92.543c0.00,10.427-8.537,18.964-18.964,18.964c0.00,0.00-18.964-0.297-24.01,0.00
		c-11.454,33.594-42.816,56.891-80.291,56.891c-47.122,0.00-85.336-38.205-85.336-85.336c0.00-47.132, 38.214-85.337, 85.336-85.337
		c 37.493,0.00, 67.948,23.297, 79.42,56.891c 11.546,0.00, 24.88,0.00, 24.88,0.00c 10.427,0.00, 18.964,8.537, 18.964,18.964l 94.818,0.00 l0.00,18.964 L 378.773,92.544 z
		 M 255.509,35.651c-26.186,0.00-47.409,21.224-47.409,47.41c0.00,26.186, 21.223,47.409, 47.409,47.409s 47.41-21.224, 47.41-47.409
		C 302.919,56.875, 281.695,35.651, 255.509,35.651z"  />
<glyph unicode="&#xe064;" d="M 255.648,81.833c-78.426,0.00-142.223,63.797-142.223,142.223c0.00,78.463, 63.797,142.222, 142.223,142.222
			S 397.87,302.519, 397.87,224.056C 397.87,145.63, 334.074,81.833, 255.648,81.833z M 255.648,347.315
			c-67.963,0.00-123.26-55.296-123.26-123.259s 55.297-123.259, 123.26-123.259s 123.259,55.296, 123.259,123.259
			S 323.611,347.315, 255.648,347.315zM 56.389,215.019L 8.981,215.019 c-5.222,0.00-9.481,4.259-9.481,9.481c0.00,5.222, 4.259,9.481, 9.481,9.481l 47.407,0.00 l 57.371,0.00 l 18.963,0.00 l 94.333,0.00 
			l0.00-18.963 l-94.333,0.00 l-18.963,0.00 L 56.389,215.018 z M 246.019,347.278l0.00-94.333 l 18.963,0.00 l0.00,94.333 l0.00,18.963 L 264.982,404.648 L 264.982,471.019 c0.00,5.222-4.259,9.481-9.481,9.481
			s-9.481-4.259-9.481-9.481l0.00-66.37 l0.00-38.408 L 246.02,347.278 z M 502.019,233.981l-47.407,0.00 L 397.24,233.981 l-18.963,0.00 l-94.333,0.00 l0.00-18.963 l 94.333,0.00 l 18.963,0.00 l 57.371,0.00 
			l 47.407,0.00 c 5.222,0.00, 9.481,4.259, 9.481,9.481C 511.50,229.722, 507.24,233.981, 502.019,233.981z M 264.981,101.723l0.00,94.333 l-18.963,0.00 l0.00-94.333 
			l0.00-18.963 l0.00-38.408 l0.00-66.37 c0.00-5.222, 4.259-9.481, 9.481-9.481s 9.481,4.26, 9.481,9.481l0.00,66.37 L 264.98,82.76 L 264.98,101.723 z"  />
<glyph unicode="&#xe065;" d="M 443.053,171.404L 425.20,189.257c-27.225,27.206-73.487,29.372-98.341,4.444c-7.111-7.111-12.038-15.778-15.001-25.242
		l-30.502,26.872l 29.706,76.562c0.00,0.00,0.00,19.112,0.00,75.931C 311.063,461.536, 216.24,480.50, 216.24,480.50l0.00-223.646 L 61.71,414.995
		c0.00,0.00-51.744-80.469, 28.632-160.826c 40.151-40.169, 50.967-53.708, 50.967-53.708l 74.95-30.539l0.00-38.039 
		c0.00,4.537-18.224,7.297-28.446,7.297c-36.595,0.00-66.375-32.633-66.375-72.729l0.00-25.224 c0.00-40.096, 29.78-72.728, 66.375-72.728
		c 36.595,0.00, 66.375,32.632, 66.375,72.728L 254.188,141.291 l 8.704,11.723l 13.742-4.686l 72.116-70.746
		c 14.408-14.408, 34.058-22.631, 53.504-22.631c 17.353,0.00, 33.483,6.463, 45.188,18.187c 12.815,12.815, 19.316,30.372, 18.094,49.392
		C 464.369,140.66, 456.425,158.032, 443.053,171.404z M 216.24,41.19c0.00-18.872-13.038-34.799-28.446-34.799
		c-15.409,0.00-28.447,15.927-28.447,34.799l0.00,25.225 c0.00,18.871, 13.038,34.798, 28.447,34.798c 15.408,0.00, 28.446-15.927, 28.446-34.798
		l0.00-22.095 L 216.24,41.19 z M 420.718,99.88c-5.889-5.834-13.148-7.074-18.242-7.074c-9.50,0.00-19.168,4.259-26.483,11.556l-17.815,17.854
		c-6.853,6.797-10.927,15.482-11.482,24.465c-0.519,8.037, 1.981,15.223, 7.00,20.205c 5.815,5.871, 13.075,7.057, 18.224,7.057
		c 9.482,0.00, 19.149-4.205, 26.483-11.502l 17.835-17.853c 6.834-6.834, 10.908-15.52, 11.482-24.465
		C 428.20,112.085, 425.719,104.898, 420.718,99.88z"  />
<glyph unicode="&#xe066;" d="M 101.137,170.077l 42.675,0.00 l 54.351,73.092l 30.793-22.865l-37.296-50.19l 23.933,0.00 l 28.788,38.758l 30.792-22.884l-11.788-15.911
			l 23.896,0.00 l 3.262,4.386l 5.903-4.386l 33.941,0.00 L 115.624,328.295c-8.546,6.185-20.616,5.697-26.782-2.868l-56.263-77.01
			c-6.147-8.584-4.254-23.146, 4.348-29.331L 101.137,170.077z M 182.757,254.621l-57.238-77.009l-30.792,22.846l 57.237,77.047
			L 182.757,254.621z M 105.729,311.877l 30.792-22.884l-57.219-77.01l-30.812,22.865L 105.729,311.877zM 203.786,298.083l 33.754-24.514l 85.163,28.75l 12.276-36.378l-59.393-20.035l 19.022-13.832l 46.518,15.649l 12.294-36.358
			l-20.709-6.991l-7.891,5.735l 26.876-19.566l 7.796,2.643l 3.73-11.021l-1.631,1.219l 28.206-20.504L 305.479,418.743
			c-3.336,10.008-14.206,15.518-24.252,12.201l-91.123-29.987c-9.989-3.317-15.519-14.225-12.22-24.233L 203.786,298.083z
			 M 304.261,356.876l 12.275-36.396l-90.898-30.662l-12.313,36.34L 304.261,356.876z M 285.838,411.434l 12.294-36.397l-90.879-30.643
			L 194.92,380.772L 285.838,411.434zM 402.523,150.886L 18.691,150.886 c-10.608,0.00-19.191-8.584-19.191-19.192l0.00-95.958 c0.00-10.607, 8.583-19.191, 19.191-19.191l 383.832,0.00 
			c 10.608,0.00, 19.192,8.584, 19.192,19.191l0.00,95.958 C 421.716,142.302, 413.132,150.886, 402.523,150.886z M 57.075,35.735L 18.691,35.735 l0.00,95.958 
			l 38.383,0.00 L 57.074,35.735 z M 114.649,35.735L 76.266,35.735 l0.00,95.958 l 38.383,0.00 L 114.649,35.735 z M 172.224,35.735l-38.383,0.00 l0.00,95.958 l 38.383,0.00 L 172.224,35.735 z
			 M 229.799,35.735l-38.384,0.00 l0.00,95.958 l 38.384,0.00 L 229.799,35.735 z M 287.374,35.735l-38.383,0.00 l0.00,95.958 l 38.383,0.00 L 287.374,35.735 z M 354.545,54.927
			c-15.894,0.00-28.787,12.895-28.787,28.788c0.00,15.893, 12.894,28.787, 28.787,28.787c 15.893,0.00, 28.787-12.895, 28.787-28.787
			C 383.332,67.821, 370.438,54.927, 354.545,54.927zM 498.145,402.512l-91.46,29.05c-10.027,3.186-20.916-2.417-24.102-12.482l-25.059-78.753l 13.288-40.464l 84.619-27.85
			l-12.032-36.378l-57.649,18.985l-7.797,23.578l 15.256-46.292l 44.23-14.562l-11.994-36.435l-17.262,5.717l 7.459-22.696l 3.768-1.199
			l-1.668-5.136l-0.731,2.212l 12.239-37.146l 81.339,255.75C 513.813,388.475, 508.209,399.326, 498.145,402.512z M 461.504,290.249
			l-91.141,30.024l 11.994,36.415l 91.142-29.987L 461.504,290.249z M 479.515,344.919l-91.141,29.987l 11.994,36.471l 91.16-30.024
			L 479.515,344.919z"  />
<glyph unicode="&#xe067;" d="M 511.50,357.24l-18.963,0.00 l0.00-113.777 l-18.963,0.00 L 473.574,357.24 l-18.963,0.00 l0.00-113.777 l-18.963,0.00 L 435.648,357.24 l-18.963,0.00 l0.00-189.629 l-18.963,0.00 L 397.722,357.24 L 378.76,357.24 
			l0.00-113.777 l-18.964,0.00 L 359.796,357.24 l-18.963,0.00 l0.00-113.777 L 321.87,243.463 L 321.87,357.24 l-18.963,0.00 l0.00-113.777 l-18.963,0.00 L 283.944,357.24 l-18.963,0.00 l0.00-113.777 l-18.963,0.00 L 246.018,357.24 l-18.963,0.00 
			l0.00-189.629 l-18.963,0.00 L 208.092,357.24 L 189.13,357.24 l0.00-113.777 l-18.963,0.00 L 170.167,357.24 l-18.963,0.00 l0.00-113.777 l-18.963,0.00 L 132.241,357.24 l-18.963,0.00 l0.00-113.777 L 94.315,243.463 L 94.315,357.24 L 75.352,357.24 
			l0.00-113.777 L 56.389,243.463 L 56.389,357.24 L 37.426,357.24 l0.00-189.629 L 18.463,167.611 L 18.463,357.24 L 8.981,357.24 L-0.50,357.24 l0.00-9.481 l0.00-199.111 l0.00-47.406 c0.00-5.214, 4.259-9.481, 9.481-9.481l 493.037,0.00 
			c 5.223,0.00, 9.481,4.268, 9.481,9.481l0.00,9.481 L 511.499,357.24 z"  />
<glyph unicode="&#xe068;" d="M 258.038,448.759c-47.645-19.52-95.73-48.919-137.052-90.11c-43.474-43.408-73.665-94.172-93.271-144.079
		c 27.929-17.719, 70.239-47.514, 111.231-88.374c 52.673-52.586, 87.124-107.324, 100.846-130.948
		c 51.971,19.387, 105.15,50.104, 150.205,95.07c 39.302,39.148, 67.846,84.313, 87.408,129.544c-8.979,16.445-45.384,79.00-105.325,138.787
		C 329.727,400.894, 285.967,431.369, 258.038,448.759z M 273.298,313.616c-2.986-2.964-6.96-4.61-11.132-4.61s-8.124,1.646-11.109,4.61
		l-19.674,19.651l-22.703-22.703l 19.651-19.673c 2.964-3.008, 4.611-6.96, 4.611-11.11c0.00-4.215-1.647-8.146-4.611-11.132
		c-2.985-2.964-6.96-4.611-11.132-4.611s-8.124,1.646-11.11,4.611L 186.417,288.30l-22.703-22.703l 19.651-19.673
		c 2.964-3.009, 4.61-6.96, 4.61-11.11c0.00-4.216-1.646-8.146-4.61-11.132c-2.986-2.963-6.96-4.61-11.132-4.61
		c-4.171,0.00-8.124,1.646-11.11,4.61l-19.673,19.652l-12.296-12.318c-2.986-2.964-6.938-4.61-11.11-4.61
		c-4.193,0.00-8.167,1.646-11.154,4.61c-6.104,6.104-6.104,16.117,0.00,22.22l 12.296,12.362l-19.674,19.673
		c-2.986,3.008-4.61,6.96-4.61,11.11c0.00,4.216, 1.625,8.146, 4.61,11.132c 2.987,2.964, 6.938,4.611, 11.11,4.611
		c 4.194,0.00, 8.146-1.647, 11.154-4.611l 19.673-19.695l 22.703,22.747l-19.673,19.673c-2.986,3.008-4.611,6.96-4.611,11.11
		c0.00,4.215, 1.625,8.146, 4.611,11.132c 2.986,2.964, 6.938,4.611, 11.11,4.611c 4.194,0.00, 8.146-1.646, 11.154-4.611l 19.673-19.695
		l 22.703,22.747l-19.673,19.673c-2.986,3.008-4.611,6.96-4.611,11.11c0.00,4.216, 1.625,8.146, 4.611,11.132
		c 2.985,2.964, 6.938,4.61, 11.11,4.61c 4.193,0.00, 8.146-1.646, 11.153-4.61l 19.673-19.695l 13.35,13.35
		c 2.985,2.964, 6.938,4.567, 11.11,4.567c 4.193,0.00, 8.145-1.603, 11.153-4.567c 2.943-3.03, 4.589-6.982, 4.589-11.132
		c0.00-4.216-1.646-8.146-4.589-11.132l-13.349-13.306l 19.651-19.673c 2.964-3.008, 4.611-6.96, 4.611-11.11
		C 277.909,320.555, 276.262,316.603, 273.298,313.616zM 5.846,139.348C-7.108,71.37, 0.445,13.911, 22.357-7.937c 21.342-21.319, 76.848-28.938, 142.806-17.323
		c-18.137,27.072-45.099,62.905-80.054,97.729C 57.664,99.826, 29.713,122.20, 5.846,139.348zM 488.67,456.993C 467.964,477.61, 415.159,485.382, 351.88,475.282c 22.682-16.599, 48.612-37.677, 74.082-63.059
		c 34.954-34.867, 61.917-70.744, 80.098-97.904C 517.696,380.276, 510.099,435.628, 488.67,456.993z"  />
<glyph unicode="&#xe06a;" d="M 492.537,117.56l-18.963,0.00 L 189.129,117.56 l0.00,94.815 l-18.963,75.852l0.00,56.889 l0.00,18.964 l-0.055,0.00 c-0.167,0.00, 0.648,9.176-9.426,9.176
			c-10.074,0.00-9.259-9.176-9.426-9.176l-0.056,0.00 l0.00-18.964 l0.00-56.889 l-18.963-75.852l0.00-94.815 L 94.315,117.56 L 75.352,117.56 
			c-10.426,0.00-18.963-8.537-18.963-18.963l0.00-18.963 l0.00-37.926 c0.00-20.861, 17.074-37.926, 37.926-37.926l0.00-18.963 l 379.259,0.00 l0.00,18.963 
			c 20.852,0.00, 37.926,17.064, 37.926,37.926l0.00,37.926 l0.00,18.963 C 511.50,109.022, 502.963,117.56, 492.537,117.56z M 264.981,60.671l-18.963,0.00 
			l0.00,18.963 l 18.963,0.00 L 264.981,60.671 z M 302.907,60.671l-18.963,0.00 l0.00,18.963 l 18.963,0.00 L 302.907,60.671 z M 340.833,60.671L 321.87,60.671 l0.00,18.963 l 18.963,0.00 L 340.833,60.671 z
			 M 378.759,60.671l-18.963,0.00 l0.00,18.963 l 18.963,0.00 L 378.759,60.671 z M 454.611,41.708l-37.926,0.00 l0.00,37.926 l 37.926,0.00 L 454.611,41.708 zM 251.723,437.375l 26.814,26.806c 26.796-28.806, 43.333-67.26, 43.333-109.584c0.00-47.139-20.481-89.527-52.87-119.009
		l-26.796,26.796c 25.519,22.603, 41.74,55.519, 41.74,92.213C 283.944,386.495, 271.667,415.486, 251.723,437.375zM 37.426,354.597c0.00,31.898, 12.278,60.89, 32.222,82.778L 42.833,464.181C 16.037,435.375-0.50,396.921-0.50,354.597
		c0.00-47.139, 20.481-89.527, 52.87-119.009l 26.796,26.796C 53.648,284.986, 37.426,317.884, 37.426,354.597zM 196.426,354.597c0.00-12.592-6.592-23.629-16.444-30.00l 26.926-26.907c 16.611,13.519, 27.444,33.871, 27.444,56.907
		c0.00,18.204-6.87,34.667-17.852,47.537l-26.796-26.787C 193.889,369.468, 196.426,362.338, 196.426,354.597zM 124.944,354.597c0.00,7.741, 2.537,14.871, 6.722,20.741L 104.87,402.134c-10.981-12.87-17.852-29.333-17.852-47.537
		c0.00-23.036, 10.852-43.389, 27.463-56.907l 26.907,26.907C 131.537,330.968, 124.944,342.005, 124.944,354.597z"  />
<glyph unicode="&#xe06b;" d="M 169.912,350.063c-7.434-2.045-99.693-25.036-112.937-28.075c-13.253-3.02-16.044-2.79-15.595,9.785
		s 3.698,110.998, 4.462,119.253c 0.765,8.256, 4.539,11.046, 12.27,4.491s 32.154-26.66, 32.154-26.66
		c 23.641,18.50, 51.075,32.871, 81.834,41.318c 83.859,23.029, 169.478-2.676, 227.193-59.646l-53.101-31.113
		C 303.441,414.583, 244.942,429.26, 187.619,413.512c-18.356-5.045-35.336-13.053-50.74-23.296c0.00,0.00, 28.027-22.972, 33.836-27.864
		C 176.525,357.459, 177.347,352.146, 169.912,350.063z M 156.353,85.967c-43.526,21.519-78.069,60.678-91.906,111.073
		c-7.062,25.724-7.998,52.174-3.401,77.687L 7.831,305.019c-10.664-39.178-11.543-81.528,0.00-123.516
		c 20.22-73.712, 73.435-129.268, 139.282-155.622c0.00,0.00-6.106-39.024-7.262-47.892c-1.156-8.868, 2.159-9.174, 10.711-4.893
		c 8.552,4.28, 100.391,54.849, 107.023,58.709c 6.631,3.86, 7.787,6.536, 0.611,14.065c-7.186,7.568-77.543,77.878-83.783,83.783
		s-10.387,4.893-11.82-3.077C 160.634,115.589, 156.353,85.967, 156.353,85.967z M 507.396,308.229
		c-27.444,15.442-105.60,59.588-109.852,61.958c-5.122,2.867-8.275,1.376-9.45-3.65c-0.937-4.052-20.602-87.796-28.275-120.419
		c-1.863-7.95, 0.487-11.123, 7.692-8.294c 7.195,2.809, 42.188,17.964, 42.188,17.964c 2.484-34.343-4.931-68.647-22.37-99.244
		c-21.213-37.286-54.619-64.825-94.753-78.871l-0.058-61.328c 1.31,0.382, 2.618,0.516, 3.908,0.879
		c 62.532,17.162, 112.174,58.041, 141.92,110.29c 25.618,45.045, 36.302,98.442, 27.873,152.354c0.00,0.00, 38.022,16.206, 42.073,17.964
		C 512.346,299.591, 513.091,305.038, 507.396,308.229z"  />
<glyph unicode="&#xe06c;" d="M 286.257,272.237l0.00-28.993 l 9.559,0.00 c 5.255,0.00, 9.559-4.294, 9.559-9.559L 305.375,138.10 c0.00-5.265-4.304-9.559-9.559-9.559l-133.82,0.00 
		c-5.255,0.00-9.559,4.294-9.559,9.559l0.00,95.585 c0.00,5.265, 4.303,9.559, 9.559,9.559l 9.559,0.00 l0.00,28.993 c0.00,26.66, 20.069,47.476, 45.674,47.476
		l 23.374,0.00 C 266.188,319.712, 286.257,298.859, 286.257,272.237z M 209.789,243.244l 38.234,0.00 l0.00,28.993 c0.00,5.694-2.847,9.241-7.44,9.241
		l-23.374,0.00 c-4.574,0.00-7.439-3.547-7.439-9.241L 209.789,243.244L 209.789,243.244zM 509.912,235.589l-74.546-108.953c-3.154-4.257-8.308-4.257-11.481,0.00L 349.34,235.589c-3.155,4.256-1.429,7.654, 3.827,7.654
		l 47.223,0.00 c-3.594,82.443-80.043,152.937-171.484,152.937c-94.876,0.00-172.054-77.178-172.054-172.054
		c0.00-123.477, 112.164-171.587, 162.822-171.587c 50.658,0.00, 82.358,10.716, 114.45,35.602l 0.075-0.074
		c 6.963,5.638, 19.201,16.392, 23.934,20.797c 5.777,5.358, 16.354,3.51, 23.522-4.237l 13.031-13.946
		c 7.169-7.691, 8.317-18.407, 2.549-23.747c-3.753-3.51-6.255-6.571-22.375-19.527c-36.031-27.257-82.237-51.938-157.10-51.938
		c-74.863,0.00-218.26,72.511-218.26,228.659c0.00,126.502, 102.904,229.406, 229.406,229.406c 122.562,0.00, 225.223-99.768, 228.892-208.944
		l 0.074-1.344l 48.231,0.00 C 511.341,243.244, 513.086,239.79, 509.912,235.589z"  />
<glyph unicode="&#xe06d;" d="M 314.571,5.071L 511.50,5.071 L 353.965,443.929l-76.179,0.00 l 7.25-109.714l-59.071,0.00 l 7.446,109.714l-76.357,0.00 L-0.50,5.071l 196.929,0.00 
		l 14.768,164.571l 88.644,0.00 L 314.571,5.071z M 214.465,206.215l 9.856,109.714l 62.357,0.00 l 9.857-109.714L 214.465,206.215 z"  />
<glyph unicode="&#xe06e;" d="M 258.089,256.209l-56.452,60.641c0.00,0.00, 28.078-16.839, 55.694-16.839c 27.615,0.00, 52.073,16.839, 52.073,16.839L 258.089,256.209z
		 M 393.682,337.245l-67.48-67.48c 37.571-21.996, 70.091-67.019, 67.06-128.396c-2.884-58.683-68.659-123.806-137.741-123.806
		c-69.102,0.00-137.003,63.84-139.95,123.806c-3.052,61.377, 29.447,106.441, 67.039,128.396l-67.48,67.48
		C 53.92,289.634, 36.155,241.307, 36.408,180.33c 0.505-117.66, 82.888-211.83, 219.26-211.83c 136.331,0.00, 218.461,94.17, 218.924,211.83
		C 474.887,241.265, 454.891,289.634, 393.682,337.245z M 256.447,443.665c-9.514,0.00-18.48,1.937-26.942,5.01l-27.867-97.496
		c0.00,0.00, 25.721-19.195, 54.01-19.195c 28.29,0.00, 53.757,19.195, 53.757,19.195L 281.705,448.17C 273.749,445.476, 265.329,443.665, 256.447,443.665
		z M 194.859,473.723l-79.436-79.437l 43.107-43.107l 47.611,111.03C 201.973,465.682, 198.227,469.471, 194.859,473.723z M 395.618,394.286
		l-43.106-43.107L 305.385,461.114c 4.356,3.452, 8.271,7.346, 11.808,11.598L 395.618,394.286z M 217.717,480.50
		c 10.229-9.388, 23.743-15.281, 38.729-15.281c 14.945,0.00, 28.458,5.894, 38.708,15.281L 217.717,480.50 z"  />
</font>
</defs>
</svg>
